<?xml version="1.0" standalone="no"?>
<!DOCTYPE svg PUBLIC "-//W3C//DTD SVG 1.1//EN" "http://www.w3.org/Graphics/SVG/1.1/DTD/svg11.dtd" >
<svg xmlns="http://www.w3.org/2000/svg">
<metadata>Generated by IcoMoon</metadata>
<defs>
<font id="icomoon" horiz-adv-x="1024">
<font-face units-per-em="1024" ascent="896" descent="-128" />
<missing-glyph horiz-adv-x="1024" />
<glyph unicode="&#x20;" horiz-adv-x="400" d="" />
<glyph unicode="&#xe900;" glyph-name="resume-document" d="M914.315 627.032c-0.048 0.461-0.127 0.916-0.207 1.367-0.028 0.155-0.045 0.313-0.069 0.465-0.107 0.537-0.248 1.067-0.399 1.591-0.021 0.065-0.031 0.131-0.052 0.2-0.162 0.523-0.351 1.043-0.558 1.55-0.024 0.062-0.041 0.127-0.069 0.189-0.2 0.479-0.427 0.943-0.665 1.405-0.045 0.086-0.079 0.182-0.127 0.265-0.22 0.42-0.479 0.823-0.73 1.222-0.076 0.121-0.145 0.248-0.224 0.365-0.241 0.365-0.513 0.713-0.785 1.061-0.11 0.141-0.207 0.293-0.32 0.427-0.331 0.403-0.685 0.785-1.050 1.16-0.069 0.069-0.121 0.141-0.189 0.21l-251.961 251.957c-0.437 0.437-0.899 0.851-1.37 1.24-0.103 0.086-0.217 0.162-0.324 0.241-0.382 0.3-0.768 0.596-1.164 0.861-0.096 0.069-0.203 0.121-0.3 0.182-0.424 0.272-0.851 0.537-1.295 0.775-0.062 0.034-0.131 0.062-0.196 0.093-0.486 0.251-0.974 0.492-1.481 0.699-0.028 0.014-0.062 0.021-0.086 0.034-0.541 0.224-1.088 0.42-1.649 0.592-0.024 0.007-0.048 0.007-0.069 0.014-0.565 0.172-1.14 0.317-1.722 0.434-0.072 0.017-0.152 0.021-0.224 0.038-0.53 0.096-1.067 0.186-1.611 0.238-0.344 0.034-0.692 0.038-1.043 0.052-0.272 0.010-0.547 0.041-0.83 0.041-0.007 0-0.010 0-0.017 0h-515.040c-10.437 0-18.897-8.46-18.897-18.897v-986.206c0-10.433 8.46-18.894 18.897-18.894h767.022c10.437 0 18.897 8.46 18.897 18.894v734.252c0 0.024-0.007 0.052-0.007 0.072 0 0.613-0.031 1.216-0.086 1.811zM849.897 644.036l-187.439-0.021-0.014 187.463 187.453-187.443zM876.614-90.209h-729.231v948.415h477.267l0.014-233.091c0-5.010 1.99-9.82 5.533-13.36 3.543-3.543 8.354-5.533 13.364-5.533l233.053 0.028v-696.457zM385.787 631.491c43.324 0 78.567 35.253 78.567 78.588s-35.243 78.588-78.567 78.588c-43.328 0-78.577-35.253-78.577-78.588-0.003-43.335 35.25-78.588 78.577-78.588zM385.787 750.876c22.482 0 40.776-18.301 40.776-40.8 0-22.492-18.295-40.797-40.776-40.797-22.489 0-40.783 18.301-40.783 40.797 0 22.499 18.291 40.8 40.783 40.8zM297.992 488.065c10.437 0 18.897 8.46 18.897 18.894v33.146c0 21.425 17.437 38.851 38.862 38.851h60.541c21.438 0 38.879-17.43 38.879-38.851v-33.146c0-10.433 8.457-18.894 18.894-18.894s18.897 8.46 18.897 18.894v33.146c0 42.26-34.392 76.642-76.673 76.642h-60.541c-42.267 0-76.656-34.379-76.656-76.642v-33.146c0.007-10.433 8.467-18.894 18.901-18.894zM279.098 354.704c0-10.433 8.46-18.894 18.894-18.894h428.027c10.437 0 18.897 8.46 18.897 18.894 0 10.437-8.46 18.897-18.897 18.897h-428.027c-10.433 0-18.894-8.46-18.894-18.897zM726.019 93.99h-428.027c-10.433 0-18.894-8.46-18.894-18.897s8.46-18.897 18.894-18.897h428.027c10.437 0 18.897 8.46 18.897 18.897 0.003 10.437-8.46 18.897-18.897 18.897zM726.019 233.797h-428.027c-10.433 0-18.894-8.46-18.894-18.897s8.46-18.897 18.894-18.897h428.027c10.437 0 18.897 8.46 18.897 18.897 0.003 10.437-8.46 18.897-18.897 18.897z" />
<glyph unicode="&#xe901;" glyph-name="paper" d="M139.8 874v-980h510.8l233.6 231.4v748.6h-744.4zM179.4 832.2h663v-677.6h-200.2c-12.6 0-20.8-10.4-20.8-20.8v-198h-442v896.4zM663.2-35.2v150.2h150.2l-150.2-150.2zM289.8 690.6h440v-41.8h-440v41.8zM289.8 513.2h440v-41.8h-440v41.8zM289.8 336h440v-41.8h-440v41.8z" />
<glyph unicode="&#xe902;" glyph-name="coding" d="M119.467 8.533c-65.86 0-119.467-53.606-119.467-119.467 0-9.438 7.629-17.067 17.067-17.067h204.8c9.438 0 17.067 7.629 17.067 17.067 0 65.86-53.606 119.467-119.467 119.467zM35.857-93.867c6.793 33.365 33.178 59.58 66.543 66.389v-32.256h34.133v32.256c33.365-6.827 59.75-33.024 66.543-66.389h-167.219zM1006.933 162.133h-29.935c-0.939 2.372-1.911 4.727-2.97 7.1l21.18 21.18c6.673 6.673 6.673 17.459 0 24.132l-72.397 72.397c-3.533 3.533-8.192 5.069-12.817 4.847 27.051 14.353 45.739 42.462 45.739 75.145v443.733c0 47.053-38.281 85.333-85.333 85.333h-785.067c-47.053 0-85.333-38.281-85.333-85.333v-443.733c0-47.053 38.281-85.333 85.333-85.333h222.72l-64.478-119.467h-30.242c-32.939 0-59.733-26.795-59.733-59.733s26.795-59.733 59.733-59.733h366.933c0-9.438 7.629-17.067 17.067-17.067h29.935c0.939-2.372 1.911-4.727 2.97-7.1l-21.18-21.18c-6.673-6.673-6.673-17.459 0-24.132l72.397-72.397c6.673-6.673 17.459-6.673 24.132 0l21.18 21.18c2.372-1.058 4.727-2.031 7.1-2.97v-29.935c0-9.438 7.629-17.067 17.067-17.067h102.4c9.438 0 17.067 7.629 17.067 17.067v29.935c2.372 0.939 4.727 1.911 7.1 2.97l21.18-21.18c6.673-6.673 17.459-6.673 24.132 0l72.397 72.397c6.673 6.673 6.673 17.459 0 24.132l-21.18 21.18c1.058 2.372 2.031 4.727 2.97 7.1h29.935c9.438 0 17.067 7.629 17.067 17.067v102.4c0 9.438-7.629 17.067-17.067 17.067zM34.133 810.667c0 28.228 22.972 51.2 51.2 51.2h785.067c28.228 0 51.2-22.972 51.2-51.2v-358.4h-887.467v358.4zM85.333 315.733c-28.228 0-51.2 22.972-51.2 51.2v51.2h887.467v-51.2c0-28.228-22.972-51.2-51.2-51.2h-785.067zM898.458 286.72l-20.958-20.958c-2.372 1.058-4.727 2.031-7.1 2.97v12.868c9.882 0 19.217 2.014 28.058 5.12zM733.867 281.6v-12.868c-2.372-0.939-4.727-1.911-7.1-2.97l-15.838 15.838h22.938zM676.096 281.6l-14.711-14.711-10.018 14.711h24.73zM580.267 76.8h-366.933c-14.114 0-25.6 11.486-25.6 25.6s11.486 25.6 25.6 25.6h366.933v-51.2zM282.359 162.15l64.469 119.45h263.236l26.761-39.27-27.767-27.767c-6.673-6.673-6.673-17.459 0-24.132l21.18-21.18c-1.058-2.372-2.031-4.727-2.97-7.1h-344.909zM989.867 59.733h-24.9c-7.458 0-14.029-4.83-16.282-11.93-2.594-8.243-6.093-16.64-10.411-24.9-3.447-6.622-2.202-14.694 3.072-19.968l17.681-17.681-48.265-48.265-17.681 17.681c-5.291 5.274-13.346 6.502-19.968 3.072-8.26-4.318-16.657-7.817-24.9-10.411-7.117-2.27-11.947-8.841-11.947-16.299v-24.9h-68.267v24.9c0 7.458-4.83 14.029-11.93 16.282-8.243 2.594-16.64 6.093-24.9 10.411-6.622 3.43-14.694 2.202-19.968-3.072l-17.681-17.681-48.265 48.265 17.681 17.681c5.274 5.274 6.519 13.346 3.072 19.968-4.318 8.26-7.817 16.657-10.411 24.9-2.27 7.117-8.841 11.947-16.299 11.947h-24.9v68.267h24.9c7.458 0 14.029 4.83 16.282 11.93 2.594 8.243 6.093 16.64 10.411 24.9 3.447 6.622 2.202 14.694-3.072 19.968l-17.681 17.681 48.265 48.265 17.681-17.681c5.274-5.291 13.346-6.519 19.968-3.072 8.26 4.318 16.657 7.817 24.9 10.411 7.117 2.27 11.947 8.841 11.947 16.299v24.9h68.267v-24.9c0-7.458 4.83-14.029 11.93-16.282 8.243-2.594 16.64-6.093 24.9-10.411 6.622-3.447 14.677-2.219 19.968 3.072l17.681 17.681 48.265-48.265-17.681-17.681c-5.274-5.274-6.519-13.346-3.072-19.968 4.318-8.26 7.817-16.657 10.411-24.9 2.27-7.117 8.841-11.947 16.299-11.947h24.9v-68.267zM802.133 196.267c-56.474 0-102.4-45.926-102.4-102.4s45.926-102.4 102.4-102.4 102.4 45.926 102.4 102.4-45.926 102.4-102.4 102.4zM802.133 25.6c-37.649 0-68.267 30.618-68.267 68.267s30.618 68.267 68.267 68.267 68.267-30.618 68.267-68.267-30.618-68.267-68.267-68.267zM336.333 764.467l-24.132 24.132-119.467-119.467c-6.673-6.673-6.673-17.459 0-24.132l119.467-119.467 24.132 24.132-107.401 107.401 107.401 107.401zM711.799 669.133l-119.467 119.467-24.132-24.132 107.401-107.401-107.401-107.401 24.132-24.132 119.467 119.467c6.673 6.673 6.673 17.459 0 24.132zM360.183 528.16l153.555 307.111 30.529-15.264-153.555-307.111-30.529 15.264zM665.6 554.667h34.133v-34.133h-34.133v34.133zM733.867 554.667h34.133v-34.133h-34.133v34.133zM802.133 554.667h34.133v-34.133h-34.133v34.133z" />
<glyph unicode="&#xe903;" glyph-name="office" d="M0-128h512v1024h-512v-1024zM320 768h128v-128h-128v128zM320 512h128v-128h-128v128zM320 256h128v-128h-128v128zM64 768h128v-128h-128v128zM64 512h128v-128h-128v128zM64 256h128v-128h-128v128zM576 576h448v-64h-448zM576-128h128v256h192v-256h128v576h-448z" />
<glyph unicode="&#xe904;" glyph-name="24-hours" d="M384.226 211.633l38.534 84.137 27.345-12.524-38.534-84.137-27.345 12.524zM498.168 105.882l86.732 32.239 10.478-28.19-86.732-32.239-10.478 28.19zM196.641 292.57l28.19 10.478 32.239-86.732-28.19-10.478-32.239 86.732zM131.027-12.058c2.172 2.404 5.36 5.114 9.578 8.128 4.214 3.010 8.79 6.020 13.732 9.036 4.934 3.008 9.94 5.96 14.996 8.854 5.062 2.89 9.398 5.42 13.012 7.586 5.296 3.13 10.48 6.564 15.538 10.3 5.062 3.734 9.632 8.066 13.732 13.008 4.094 4.934 7.412 10.538 9.94 16.806 2.528 6.262 3.794 13.37 3.794 21.32 0 19.27-6.926 34.564-20.778 45.892-13.858 11.324-33.788 16.984-59.81 16.984-10.604 0-20.778-0.962-30.532-2.892-9.758-1.932-18.736-4.516-26.924-7.768-8.192-3.252-15.54-6.93-22.044-11.020-6.504-4.098-11.688-8.314-15.538-12.65l36.858-42.64c6.986 7.948 14.212 14.392 21.684 19.334 7.464 4.934 16.26 7.408 26.378 7.408 8.912 0 15.776-2.052 20.598-6.142 4.818-4.098 7.226-9.52 7.226-16.264 0-3.374-0.966-6.322-2.89-8.852-1.932-2.528-5.122-5.364-9.576-8.492-4.46-3.132-10.478-6.748-18.066-10.838-7.59-4.102-17.048-9.278-28.37-15.54-10.604-6.024-19.394-12.17-26.378-18.432-6.988-6.266-12.53-13.072-16.622-20.414-4.102-7.352-6.992-15.484-8.674-24.394-1.69-8.912-2.528-19.032-2.528-30.354h179.959v52.038h-98.296zM415.642-8.444v150.691h-39.39l-117.808-151.053v-51.674h99.376v-49.51h57.82v49.51h31.802v52.038h-31.8zM364.693-8.446h-49.146l49.146 63.964v-63.964zM1000.268 407.73c0 130.421-50.788 253.035-143.009 345.261-92.222 92.222-214.839 143.009-345.259 143.009s-253.037-50.788-345.261-143.009c-92.222-92.224-143.009-214.839-143.009-345.261 0-70.588 14.742-138.693 43.812-202.423l27.362 12.482c-25.198 55.248-38.894 114.022-40.834 174.905h61.55v30.078h-61.538c2.4 74.040 22.44 143.693 56.062 204.885l52.926-31.266 15.298 25.894-52.89 31.244c36.264 56.824 84.706 105.148 141.619 141.285l31.12-52.956 25.93 15.24-31.152 53.006c60.968 33.318 130.299 53.158 203.967 55.548v-61.538h30.078v61.536c74.040-2.4 143.693-22.44 204.885-56.062l-31.268-52.926 25.894-15.298 31.246 52.89c56.824-36.264 105.148-84.706 141.285-141.617l-52.958-31.118 15.24-25.93 53.010 31.148c33.318-60.968 53.158-130.299 55.548-203.967h-61.538v-30.078h61.538c-2.4-74.040-22.44-143.693-56.062-204.885l-52.926 31.266-15.298-25.894 52.89-31.244c-36.264-56.824-84.706-105.148-141.619-141.285l-31.12 52.956-25.93-15.24 31.15-53.008c-55.88-30.536-118.782-49.76-185.611-54.598l24.966 24.964-21.268 21.268-62.496-62.496 62.494-62.496 21.268 21.264-27.2 27.2c118.696 7.428 229.259 57.166 314.099 142.001 92.222 92.23 143.009 214.843 143.009 345.265zM571.686 422.768c-5.514 21.878-22.77 39.134-44.648 44.648v269.963h-30.078v-269.961c-26.694-6.73-46.514-30.934-46.514-59.688 0-33.942 27.614-61.552 61.552-61.552 28.754 0 52.958 19.818 59.688 46.514h178.951v30.078h-178.951zM511.998 376.256c-17.354 0-31.474 14.12-31.474 31.474s14.12 31.474 31.474 31.474c17.354 0 31.474-14.12 31.474-31.474 0.002-17.354-14.118-31.474-31.474-31.474z" />
<glyph unicode="&#xe905;" glyph-name="company-workers" d="M407.686 317.138c-1.942-51.91 17.779-94.060 54.109-115.645 15.485-9.199 32.841-13.798 50.204-13.798 17.356 0 34.721 4.599 50.202 13.796 36.33 21.583 56.054 63.736 54.112 115.645-2.418 64.632-55.351 95.887-103.509 97.579-0.538 0.021-1.076 0.021-1.614 0-48.154-1.689-101.082-32.945-103.505-97.577zM453.624 315.419c1.407 37.514 32.133 52.133 58.373 53.323 26.245-1.193 56.973-15.809 58.376-53.323 1.294-34.565-10.245-61.685-31.653-74.403-16.48-9.794-36.96-9.794-53.445 0-21.408 12.72-32.945 39.838-31.651 74.403zM774.303 317.138c-1.945-51.91 17.777-94.060 54.109-115.645 15.481-9.199 32.841-13.798 50.202-13.798s34.719 4.599 50.202 13.798c36.333 21.583 56.054 63.736 54.109 115.643-2.418 64.632-55.348 95.887-103.505 97.579-0.533 0.021-1.078 0.021-1.611 0-48.163-1.689-101.098-32.947-103.507-97.577zM820.241 315.421c1.398 37.512 32.129 52.128 58.373 53.321 26.242-1.193 56.969-15.809 58.373-53.323 1.294-34.567-10.242-61.685-31.651-74.403-16.485-9.794-36.96-9.794-53.445 0-21.408 12.718-32.945 39.836-31.651 74.405zM645.098 635.072c15.485-9.199 32.841-13.798 50.204-13.798 17.358 0 34.719 4.599 50.202 13.798 36.333 21.583 56.056 63.736 54.114 115.648-2.42 64.627-55.353 95.883-103.512 97.574-0.538 0.018-1.078 0.018-1.611 0-48.154-1.692-101.087-32.947-103.505-97.574-1.945-51.912 17.777-94.062 54.107-115.648zM636.927 748.998c1.404 37.512 32.131 52.128 58.373 53.319 26.245-1.191 56.973-15.807 58.378-53.319 1.294-34.567-10.245-61.688-31.653-74.408-16.487-9.794-36.967-9.792-53.445 0-21.411 12.722-32.947 39.843-31.653 74.408zM95.182 201.493c15.483-9.196 32.844-13.796 50.202-13.796s34.719 4.599 50.204 13.798c36.33 21.583 56.054 63.733 54.112 115.645-2.423 64.63-55.355 95.885-103.509 97.577-0.538 0.021-1.076 0.021-1.614 0-48.159-1.689-101.091-32.947-103.512-97.579-1.938-51.91 17.786-94.062 54.116-115.645zM87.008 315.419c1.402 37.514 32.133 52.13 58.378 53.323 26.242-1.193 56.971-15.809 58.376-53.323 1.294-34.565-10.245-61.683-31.653-74.403-16.483-9.792-36.965-9.792-53.447 0-21.408 12.718-32.947 39.838-31.653 74.403zM657-52.009c2.312-12.481-5.932-24.484-18.416-26.796-1.414-0.262-2.825-0.407-4.213-0.407-10.865 0-20.523 7.7-22.574 18.767l-20.264 109.327c-6.969 37.631-44.968 54.332-79.536 54.332s-72.564-17.129-79.533-54.758l-15.232-82.795h104.642c12.692 0 22.985-10.29 22.985-22.985s-10.29-22.985-22.985-22.985h-132.275c-6.829 0-13.304 3.604-17.671 8.856-4.367 5.25-6.174 12.738-4.93 19.452l20.266 109.398c11.78 63.6 71.137 92.072 124.736 92.072s112.956-28.469 124.738-92.072l20.261-109.407zM695.296 532.606c-34.563-0.002-72.557-16.846-79.524-54.473-2.312-12.483-14.311-20.723-26.785-18.418-12.483 2.31-20.728 14.304-18.418 26.785 11.775 63.6 71.125 92.072 124.725 92.074 53.604 0.005 112.968-28.463 124.752-92.072 2.312-12.483-5.932-24.475-18.416-26.787-1.414-0.262-2.825-0.388-4.213-0.388-10.865 0-20.523 7.735-22.574 18.802-6.971 37.636-44.975 54.48-79.547 54.477zM1005.198-78.805c-1.414-0.262-2.825-0.407-4.213-0.407-10.865 0-20.526 7.7-22.574 18.77l-20.259 109.327c-6.969 37.629-44.968 54.33-79.538 54.33s-72.567-17.129-79.538-54.758l-15.235-82.795h104.642c12.692 0 22.985-10.29 22.985-22.985s-10.29-22.985-22.985-22.985h-132.278c-6.829 0-13.304 3.604-17.671 8.856-4.365 5.25-6.174 12.738-4.93 19.455l20.266 109.398c11.782 63.602 71.139 92.072 124.741 92.072s112.958-28.469 124.741-92.072l20.259-109.398c2.312-12.486-5.932-24.495-18.413-26.808zM278.491 635.072c15.483-9.199 32.841-13.798 50.2-13.798 17.361 0 34.719 4.599 50.204 13.798 36.33 21.583 56.052 63.736 54.109 115.643-2.411 64.63-55.344 95.887-103.505 97.577-0.54 0.021-1.078 0.021-1.614 0-48.159-1.692-101.091-32.947-103.509-97.574-1.942-51.912 17.784-94.062 54.114-115.645zM270.317 749c1.402 37.512 32.133 52.126 58.376 53.319 26.242-1.191 56.973-15.807 58.373-53.319 1.294-34.567-10.242-61.688-31.651-74.405-16.483-9.792-36.96-9.794-53.443 0-21.411 12.718-32.949 39.838-31.655 74.405zM290.39-52.009c2.31-12.483-5.935-24.484-18.416-26.796-1.416-0.262-2.825-0.407-4.213-0.407-10.865 0-20.526 7.7-22.574 18.767l-20.261 109.327c-6.971 37.631-44.973 54.332-79.543 54.332-34.567 0-72.567-17.129-79.536-54.758l-15.228-82.795h111.356c12.695 0 22.985-10.29 22.985-22.985s-10.29-22.985-22.985-22.985h-138.992c-6.829 0-13.304 3.604-17.671 8.856s-6.174 12.738-4.93 19.455l20.259 109.398c11.78 63.6 71.137 92.072 124.736 92.072 53.604 0.002 112.963-28.467 124.745-92.072l20.266-109.41zM328.693 532.606c-34.567 0-72.567-16.844-79.538-54.475-2.312-12.481-14.308-20.719-26.787-18.416-12.481 2.312-20.728 14.306-18.413 26.787 11.78 63.602 71.137 92.072 124.738 92.072s112.958-28.469 124.741-92.072c2.31-12.483-5.935-24.475-18.416-26.787-1.416-0.262-2.825-0.388-4.213-0.388-10.865 0-20.526 7.737-22.576 18.804-6.969 37.631-44.968 54.475-79.536 54.475z" />
<glyph unicode="&#xe906;" glyph-name="graphic" d="M891.871 796.903v-363.355h132.129v363.355h-132.129zM990.968 466.581h-66.065v297.29h66.065v-297.29zM726.71 629.826c-10.57 9.447-21.587 18.3-33.032 26.508v8.44h-12.437c-64.363 42.579-140.453 66.065-218.789 66.065h-16.516v-412.903h412.903v16.516c0 33.561-4.443 66.758-12.783 99.097h12.783v297.29h-132.129v-101.013zM478.968 350.968v346.475c46.741-2.147 92.276-13.494 134.26-32.669h-51.679v-231.226h132.129v180.571c11.561-9.546 22.66-19.671 33.032-30.67v-149.9h85.157c7.63-26.938 12.305-54.586 13.576-82.581h-346.475zM660.645 631.742v-165.161h-66.065v165.161h66.065zM759.742 697.806h66.065v-231.226h-66.065v231.226zM128.709 255.304l140.375 140.375 23.357-23.357-140.375-140.375-23.357 23.357zM198.194 384c0 27.318-22.231 49.548-49.548 49.548s-49.548-22.231-49.548-49.548 22.231-49.548 49.548-49.548 49.548 22.231 49.548 49.548zM132.129 384c0 9.117 7.399 16.516 16.516 16.516s16.516-7.399 16.516-16.516-7.399-16.516-16.516-16.516-16.516 7.399-16.516 16.516zM280.774 301.419c-27.318 0-49.548-22.231-49.548-49.548s22.231-49.548 49.548-49.548 49.548 22.231 49.548 49.548-22.231 49.548-49.548 49.548zM280.774 235.355c-9.117 0-16.516 7.399-16.516 16.516s7.399 16.516 16.516 16.516 16.516-7.399 16.516-16.516c0-9.117-7.399-16.516-16.516-16.516zM724.348 46.361c44.627 65.751 68.426 142.105 68.426 222.026v16.516h-379.871v379.871h-16.516c-16.318 0-32.917-1.437-49.548-3.534v234.76h-346.839v-231.226h207.872l32.256-32.256c-144.582-62.084-240.128-205.213-240.128-364.131 0-218.558 177.829-396.387 396.387-396.387 95.843 0 187.144 34.651 259.287 97.23l51.101-51.101c10.042-10.042 23.255-15.079 36.451-15.079s26.409 5.037 36.451 15.079c20.1 20.1 20.1 52.802 0 72.902l-55.329 55.329zM221.547 697.806h-188.515v165.161h280.774v-257.42l-92.259 92.259zM396.387-94.968c-200.357 0-363.355 162.998-363.355 363.355 0 150.148 93.085 284.854 232.498 338.729l81.309-81.309v102.301c11.049 1.519 22.099 2.742 33.032 3.254v-379.491h379.508c-2.89-65.156-23.123-127.306-58.764-181.777l-26.343 26.343c1.817 7.482 2.89 15.261 2.89 23.304 0 54.652-44.445 99.097-99.097 99.097s-99.097-44.445-99.097-99.097 44.445-99.097 99.097-99.097c8.043 0 15.822 1.074 23.304 2.89l30.885-30.885c-65.833-56.419-148.794-87.618-235.867-87.618zM644.129 119.742c0-36.435-29.63-66.065-66.065-66.065s-66.065 29.63-66.065 66.065 29.63 66.065 66.065 66.065 66.065-29.63 66.065-66.065zM756.323-58.517c-7.234-7.234-18.961-7.234-26.195 0l-96.355 96.355c10.29 7.019 19.175 15.905 26.195 26.195l96.355-96.355c7.218-7.234 7.218-18.961 0-26.195zM66.065 829.935h214.71v-33.032h-214.71v33.032zM66.065 763.871h214.71v-33.032h-214.71v33.032zM561.548 136.258h33.032v-33.032h-33.032v33.032zM412.903 136.258h33.032v-33.032h-33.032v33.032zM346.839 136.258h33.032v-33.032h-33.032v33.032zM280.774 136.258h33.032v-33.032h-33.032v33.032z" />
<glyph unicode="&#xe907;" glyph-name="support" d="M443.733 571.733c-28.228 0-51.2-22.972-51.2-51.2h34.133c0 9.404 7.646 17.067 17.067 17.067s17.067-7.663 17.067-17.067h34.133c0 28.228-22.972 51.2-51.2 51.2zM580.267 571.733c-28.228 0-51.2-22.972-51.2-51.2h34.133c0 9.404 7.646 17.067 17.067 17.067s17.067-7.663 17.067-17.067h34.133c0 28.228-22.972 51.2-51.2 51.2zM512 110.933c-37.649 0-68.267-30.618-68.267-68.267s30.618-68.267 68.267-68.267 68.267 30.618 68.267 68.267-30.618 68.267-68.267 68.267zM512 8.533c-18.825 0-34.133 15.309-34.133 34.133s15.309 34.133 34.133 34.133c18.825 0 34.133-15.309 34.133-34.133s-15.309-34.133-34.133-34.133zM921.6-93.867v221.867c0 141.158-114.842 256-256 256h-18.586c6.076 5.342 11.793 11.042 17.203 17.067h18.449c47.053 0 85.333 38.281 85.333 85.333v30.071c20.565 13.79 34.133 37.239 34.133 63.795 0 26.658-13.67 50.142-34.338 63.915-2.27 139.213-116.036 251.819-255.795 251.819s-253.525-112.606-255.795-251.819c-20.668-13.773-34.338-37.257-34.338-63.915 0-42.342 34.458-76.8 76.8-76.8h11.622c7.987-47.292 32.154-89.054 66.714-119.467h-18.603c-141.158 0-256-114.842-256-256v-221.867h-102.4v-34.133h1024v34.133h-102.4zM733.867 486.4c0-25.89-19.388-47.121-44.356-50.5 11.827 20.565 20.122 43.349 24.201 67.567h11.622c2.918 0 5.7 0.546 8.533 0.87v-17.937zM768 580.267c0-23.518-19.132-42.667-42.667-42.667h-8.533v85.333h8.533c23.535 0 42.667-19.149 42.667-42.667zM307.2 537.6h-8.533c-23.535 0-42.667 19.149-42.667 42.667s19.132 42.667 42.667 42.667h8.533v-85.333zM298.667 657.067c-2.645 0-5.137-0.512-7.714-0.785 8.397 114.739 104.209 205.585 221.047 205.585s212.651-90.846 221.047-205.585c-2.577 0.273-5.069 0.785-7.714 0.785h-11.622c-16.316 96.7-100.437 170.667-201.711 170.667s-185.395-73.967-201.711-170.667h-11.622zM682.65 623.36c-123.17 4.335-204.783 54.699-204.783 101.973 0 9.421-7.629 17.067-17.067 17.067s-17.067-7.646-17.067-17.067c0-42.65-44.1-77.995-101.41-84.258 9.097 85.606 81.715 152.525 169.677 152.525 93.952 0 170.411-76.339 170.65-170.24zM341.333 537.6v69.222c53.299 4.625 98.526 30.327 121.105 66.321 35.703-47.309 119.142-80.606 220.228-84.002v-51.541c0-38.451-12.937-73.83-34.458-102.4h-136.209v-34.133h101.956c-9.796-7.339-20.361-13.653-31.625-18.773-44.783-20.343-95.898-20.343-140.698 0-59.051 26.863-100.301 86.289-100.301 155.307zM459.247 339.934c16.862-4.506 34.492-7.134 52.753-7.134s35.891 2.628 52.753 7.134l-52.753-105.506-52.753 105.506zM484.386 213.333h-30.106l-68.267 136.533h30.106l68.267-136.533zM607.881 349.867h30.106l-68.267-136.533h-30.106l68.267 136.533zM187.733 128v-221.867h-51.2v221.867c0 118.869 94.037 215.91 211.575 221.338l68.011-136.004h-143.053c-47.053 0-85.333-38.281-85.333-85.333zM802.133-93.867h-580.267v221.867c0 28.228 22.972 51.2 51.2 51.2h477.867c28.228 0 51.2-22.972 51.2-51.2v-221.867zM887.467-93.867h-51.2v221.867c0 47.053-38.281 85.333-85.333 85.333h-143.053l68.011 136.004c117.538-5.427 211.575-102.468 211.575-221.338v-221.867zM733.867 59.733h34.133v-119.467h-34.133v119.467zM733.867 128h34.133v-34.133h-34.133v34.133zM887.467 742.4h34.133v-34.133h-34.133v34.133zM887.467 674.133h34.133v-34.133h-34.133v34.133zM887.467 605.867h34.133v-34.133h-34.133v34.133zM102.4 537.6h34.133v-34.133h-34.133v34.133zM102.4 469.333h34.133v-34.133h-34.133v34.133zM102.4 401.067h34.133v-34.133h-34.133v34.133z" />
<glyph unicode="&#xe908;" glyph-name="pen" d="M668.582 285.674l-43.546 278.686 27.524 313.758c0.404 4.594-1.14 9.146-4.256 12.546-3.116 3.402-7.514 5.336-12.126 5.336h-242.006c-4.574 0-8.942-1.906-12.054-5.258s-4.688-7.85-4.346-12.41l22.922-307.436c-0.676-1.414-1.168-2.938-1.42-4.554l-43.854-280.67c-0.526-3.376 0.010-6.834 1.54-9.894l140.332-280.666c2.784-5.572 8.48-9.090 14.708-9.090s11.924 3.52 14.708 9.090l140.334 280.668c1.53 3.058 2.066 6.518 1.54 9.894zM618.226 863.11l-24.812-282.86h-160.434l-21.090 282.86h206.336zM512 317.122c-24.786 0-44.95 20.164-44.95 44.95s20.164 44.95 44.95 44.95 44.95-20.164 44.95-44.95c0-24.786-20.164-44.95-44.95-44.95zM528.446 72.132v213.864c35.048 7.57 61.396 38.798 61.396 76.078 0 42.922-34.92 77.842-77.842 77.842s-77.842-34.922-77.842-77.844c0-37.28 26.348-68.508 61.396-76.078v-213.864l-106.83 213.658 40.87 261.57h164.81l40.87-261.57-106.828-213.656zM836.522-7.4h-87.708c-9.084 0-16.446-7.364-16.446-16.446v-27.408h-440.736v27.408c0 9.082-7.36 16.446-16.446 16.446h-87.708c-9.084 0-16.446-7.364-16.446-16.446v-87.708c0-9.082 7.36-16.446 16.446-16.446h87.708c9.084 0 16.446 7.364 16.446 16.446v27.408h440.736v-27.408c0-9.082 7.36-16.446 16.446-16.446h87.708c9.084 0 16.446 7.364 16.446 16.446v87.708c0 9.082-7.362 16.446-16.446 16.446zM258.74-95.11h-54.818v54.818h54.818v-54.818zM820.078-95.11h-54.818v54.818h54.818v-54.818zM915.46 387.29c-9.084 0-16.446-7.364-16.446-16.446 0-213.4-173.616-387.016-387.016-387.016s-387.014 173.616-387.014 387.016c0 9.082-7.36 16.446-16.446 16.446-9.084 0-16.446-7.364-16.446-16.446 0-231.536 188.368-419.906 419.906-419.906s419.906 188.37 419.906 419.906c0.002 9.082-7.36 16.446-16.444 16.446z" />
<glyph unicode="&#xe909;" glyph-name="search-1" d="M924.582 896h-701.12c-11.264 0-20.398-9.132-20.398-20.398v-698.062l-104.656-104.656c-25.846-25.846-25.846-67.906 0-93.754 12.924-12.924 29.902-19.386 46.878-19.386s33.956 6.462 46.878 19.386l10.898 10.898v-97.63c0-11.266 9.134-20.398 20.398-20.398h533.124c5.41 0 10.596 2.15 14.424 5.974l167.994 167.996c3.824 3.824 5.974 9.012 5.974 14.424v815.208c0.004 11.266-9.13 20.398-20.394 20.398zM163.318 7.98c-9.944-9.944-26.12-9.942-36.060 0s-9.94 26.118 0 36.058l195.444 195.444 36.060-36.060-195.444-195.442zM776.95-58.392l-0.092 98.514 98.518-0.090-98.426-98.424zM904.184 80.804l-147.726 0.134c-0.006 0-0.012 0-0.018 0-5.41 0-10.598-2.15-14.424-5.974-3.828-3.828-5.98-9.026-5.974-14.442l0.136-147.726h-492.316v118.030l158.172 158.172c7.966 7.966 7.966 20.882 0 28.848l-18.656 18.656 39.008 39.008c41.95-35.026 95.902-56.136 154.698-56.136 133.286 0 241.722 108.436 241.722 241.722s-108.44 241.718-241.724 241.718-241.722-108.434-241.722-241.72c0-59.834 21.864-114.652 58.006-156.906l-38.838-38.838-17.402 17.402c-3.826 3.824-9.014 5.974-14.424 5.974s-10.598-2.15-14.424-5.974l-64.416-64.416v636.868h660.322v-774.4zM376.158 461.094c0 110.79 90.134 200.924 200.924 200.924s200.924-90.134 200.924-200.924-90.134-200.924-200.924-200.924c-110.79 0-200.924 90.134-200.924 200.924zM692.332 480.472h-228.462c-11.264 0-20.398-9.132-20.398-20.398s9.134-20.398 20.398-20.398h228.462c11.264 0 20.398 9.132 20.398 20.398s-9.134 20.398-20.398 20.398zM692.332 400.918h-228.462c-11.264 0-20.398-9.132-20.398-20.398s9.134-20.398 20.398-20.398h228.462c11.266 0 20.398 9.132 20.398 20.398s-9.134 20.398-20.398 20.398zM555.664 562.066h-91.792c-11.264 0-20.398-9.132-20.398-20.398s9.134-20.398 20.398-20.398h91.792c11.264 0 20.398 9.132 20.398 20.398s-9.134 20.398-20.398 20.398zM629.098 562.066h-12.24c-11.264 0-20.398-9.132-20.398-20.398s9.134-20.398 20.398-20.398h12.24c11.264 0 20.398 9.132 20.398 20.398s-9.134 20.398-20.398 20.398z" />
<glyph unicode="&#xe90a;" glyph-name="handshake" d="M128.052 617.55c-27.592 0-50.046-22.454-50.046-50.046s22.454-50.046 50.046-50.046 50.046 22.454 50.046 50.046-22.454 50.046-50.046 50.046zM128.052 550.821c-9.192 0-16.682 7.49-16.682 16.682s7.49 16.682 16.682 16.682 16.682-7.49 16.682-16.682-7.49-16.682-16.682-16.682zM1024 472.299l-23.589 23.589-238.721-238.721c-0.901 1.018-1.618 2.169-2.586 3.153l-140.364 140.364 21.57 21.57-23.589 23.589-49.529-49.529c-26.541-26.525-67.629-30.195-98.208-10.994l121.229 120.278c0.017 0.017 0.017 0.033 0.033 0.050l316.961 316.961-23.589 23.589-305.15-305.15-21.57 21.57c-3.12 3.136-7.374 4.888-11.794 4.888h-59.822l-262.026 262.026-23.589-23.589 155.027-155.027-213.365-213.365-118.777 108.884-22.554-24.606 194.781-178.532v-42.706c0-4.421 1.752-8.675 4.888-11.794l72.15-72.15c-6.589-8.892-10.31-19.535-10.31-30.812 0-28.093 22.387-50.897 50.23-51.881 0.968-27.225 22.821-49.079 50.046-50.046 0.968-27.225 22.821-49.079 50.046-50.046 0.984-27.842 23.805-50.23 51.881-50.23 7.090 0 13.963 1.451 20.302 4.137l1.268-1.268c12.595-12.612 29.361-19.551 47.194-19.551s34.582 6.94 47.177 19.551l179.45 179.45c12.612 12.612 19.551 29.361 19.551 47.177 0 4.271-0.45 8.475-1.234 12.595l246.579 246.579zM165.954 414.979l212.33 212.347 43.14-43.14-210.462-210.462-45.008 41.255zM326.803 172.604c-3.537-3.52-8.224-5.472-13.229-5.472-10.31 0-18.701 8.391-18.701 18.701 0 5.005 1.952 9.692 5.472 13.229l79.374 79.374c3.537 3.52 8.224 5.472 13.229 5.472 10.31 0 18.701-8.391 18.701-18.701 0-5.005-1.952-9.692-5.472-13.229l-79.374-79.374zM376.85 122.557c-3.537-3.52-8.224-5.472-13.229-5.472-10.31 0-18.701 8.391-18.701 18.701 0 5.005 1.952 9.692 5.472 13.229l79.374 79.374c3.537 3.52 8.224 5.472 13.229 5.472 10.31 0 18.701-8.391 18.701-18.701 0-5.005-1.952-9.692-5.472-13.229l-79.374-79.374zM426.896 72.511c-3.537-3.52-8.224-5.472-13.229-5.472-10.31 0-18.701 8.391-18.701 18.701 0 5.005 1.952 9.692 5.472 13.229l79.374 79.374c3.537 3.52 8.224 5.472 13.229 5.472 10.31 0 18.701-8.391 18.701-18.701 0-5.005-1.952-9.692-5.472-13.229l-79.374-79.374zM476.942 22.465c-3.537-3.52-8.224-5.472-13.229-5.472-10.31 0-18.701 8.391-18.701 18.701 0 5.005 1.952 9.692 5.472 13.229l79.374 79.374c3.537 3.52 8.224 5.472 13.229 5.472 10.31 0 18.701-8.391 18.701-18.701 0-5.005-1.952-9.692-5.472-13.229l-79.374-79.374zM735.516 189.536l-179.45-179.45c-12.128-12.128-32.814-12.462-45.592-1.285l69.448 69.448c9.809 9.826 15.231 22.905 15.231 36.817 0 28.093-22.387 50.897-50.23 51.881-0.968 27.225-22.821 49.079-50.046 50.046-0.968 27.225-22.821 49.079-50.046 50.046-0.984 27.842-23.805 50.23-51.881 50.23-13.913 0-26.992-5.422-36.817-15.247l-61.257-61.257-66.729 66.729v36.234l216.868 216.868 21.57-21.57c3.12-3.136 7.374-4.888 11.794-4.888h59.822l16.632-16.632-122.614-121.663c-3.153-3.136-4.938-7.424-4.921-11.878s1.802-8.725 4.971-11.844c43.857-43.207 114.99-42.94 158.514 0.617l4.371 4.354 140.364-140.364c6.306-6.306 9.776-14.68 9.776-23.605s-3.47-17.283-9.776-23.589zM116.325 168.15l-29.277-16.015c5.488-10.026 11.427-20.019 17.65-29.678l28.059 18.050c-5.805 9.008-11.327 18.3-16.432 27.642zM354.362-38.158l-11.694-31.246c10.693-4.004 21.72-7.674 32.797-10.91l9.375 32.013c-10.293 3.019-20.536 6.423-30.478 10.143zM241.791 23.415l-20.035-26.691c9.175-6.89 18.734-13.529 28.376-19.735l18.050 28.059c-8.975 5.789-17.867 11.961-26.391 18.367zM295.858-11.417l-16.015-29.26c10.043-5.488 20.436-10.71 30.895-15.498l13.896 30.328c-9.742 4.471-19.418 9.325-28.777 14.43zM193.196 65.555l-23.605-23.572c8.108-8.124 16.615-16.048 25.273-23.555l21.87 25.207c-8.074 6.99-15.981 14.38-23.539 21.92zM151.073 114.133l-26.691-20.019c6.906-9.209 14.197-18.25 21.67-26.875l25.207 21.87c-6.94 8.024-13.729 16.449-20.185 25.023zM62.458 351.787l-33.281-2.369c0.801-11.427 2.035-22.971 3.653-34.332l33.031 4.704c-1.501 10.593-2.652 21.353-3.403 31.996zM29.177 418.465c-0.817-11.344-1.218-22.938-1.218-34.465v-0.050l33.364 0.050c0 10.743 0.384 21.553 1.134 32.096l-33.281 2.369zM71.533 288.178l-32.597-7.090c2.436-11.227 5.305-22.488 8.525-33.464l32.013 9.375c-2.986 10.226-5.655 20.719-7.941 31.179zM89.616 226.521l-31.262-11.678c4.004-10.71 8.441-21.437 13.212-31.863l30.345 13.863c-4.437 9.726-8.575 19.702-12.295 29.678zM921.572 196.86c-4.471-9.742-9.325-19.418-14.447-28.777l29.277-16.015c5.488 10.043 10.71 20.436 15.498 30.895l-30.328 13.896zM890.693 140.424c-5.805-9.008-11.994-17.883-18.384-26.408l26.691-20.035c6.873 9.142 13.513 18.701 19.752 28.376l-28.059 18.067zM852.091 88.993c-6.99-8.074-14.363-15.998-21.92-23.539l23.572-23.605c8.124 8.108 16.048 16.615 23.555 25.273l-25.207 21.87zM944.042 257.082c-3.019-10.26-6.423-20.519-10.143-30.495l31.246-11.678c4.020 10.727 7.674 21.77 10.91 32.797l-32.013 9.375zM957.638 319.874c-1.518-10.61-3.437-21.253-5.689-31.646l32.614-7.057c2.419 11.16 4.471 22.588 6.089 33.998l-33.014 4.704zM806.615 43.517c-8.041-6.973-16.465-13.763-25.040-20.202l20.019-26.691c9.192 6.89 18.234 14.18 26.875 21.67l-21.854 25.223zM416.003-56.242l-7.057-32.597c11.16-2.419 22.588-4.471 33.998-6.089l4.704 33.014c-10.61 1.518-21.253 3.437-31.646 5.672zM962.159 384c0-10.727-0.367-21.553-1.118-32.146l33.281-2.352c0.801 11.394 1.201 23.005 1.201 34.499h-33.364zM575.918-61.88c-10.576-1.501-21.336-2.652-31.996-3.403l2.369-33.281c11.427 0.801 22.971 2.035 34.332 3.653l-4.704 33.031zM511.741-66.418c-10.727 0-21.52 0.367-32.113 1.118l-2.352-33.281c11.377-0.801 22.988-1.201 34.482-1.201l-0.017 33.364zM755.201 4.982c-8.942-5.755-18.234-11.277-27.626-16.415l16.015-29.277c10.076 5.522 20.052 11.444 29.661 17.633l-18.050 28.059zM698.865-25.83c-9.726-4.437-19.702-8.591-29.661-12.295l11.661-31.262c10.71 4.004 21.437 8.441 31.863 13.212l-13.863 30.345zM638.709-48.284c-10.226-2.986-20.703-5.655-31.179-7.941l7.090-32.597c11.227 2.436 22.488 5.305 33.464 8.525l-9.375 32.013zM706.339 825.476l-14.697-29.961c9.259-4.538 18.784-9.659 28.31-15.214l16.816 28.827c-10.226 5.956-20.469 11.461-30.428 16.349zM511.741 867.782l-6.973-0.050 0.484-33.364 6.489 0.050c8.808 0 17.416-0.2 25.824-0.601l1.568 33.331c-8.925 0.417-18.033 0.634-27.392 0.634zM641.595 850.716l-9.359-32.030c10.093-2.953 20.235-6.406 30.145-10.276l12.161 31.062c-10.827 4.237-21.904 8.007-32.947 11.244zM573.515 864.362l-3.87-33.131c10.777-1.268 21.42-2.936 31.629-4.971l6.506 32.73c-11.060 2.202-22.588 4.004-34.265 5.372zM336.095 834.918c-10.693-4.171-21.353-8.775-31.696-13.696l14.297-30.145c9.642 4.571 19.585 8.875 29.544 12.762l-12.145 31.079zM402.073 855.287c-11.194-2.602-22.421-5.622-33.348-9.008l9.859-31.88c10.159 3.153 20.602 5.972 31.029 8.391l-7.54 32.497zM470.286 866.031c-11.461-0.984-23.005-2.369-34.298-4.154l5.205-32.964c10.493 1.668 21.236 2.969 31.913 3.87l-2.819 33.248z" />
<glyph unicode="&#xe90b;" glyph-name="office2" d="M733.866-59.734h-477.866c-9.42 0-17.066-7.646-17.066-17.066v-34.134c0-9.42 7.646-17.066 17.066-17.066s17.066 7.646 17.066 17.066v17.066h460.8c9.42 0 17.066 7.646 17.066 17.066s-7.644 17.068-17.066 17.068zM375.466 469.334c0-9.42 7.646-17.066 17.066-17.066h68.268c9.42 0 17.066 7.646 17.066 17.066v102.4c0 9.42-7.646 17.066-17.066 17.066h-68.266c-9.42 0-17.066-7.646-17.066-17.066v-102.4zM409.6 554.666h34.134v-68.266h-34.134v68.266zM221.866 691.2h-204.8c-9.42 0-17.066-7.646-17.066-17.066v-341.334c0-9.42 7.646-17.066 17.066-17.066s17.066 7.646 17.066 17.066v324.266h187.734c9.42 0 17.066 7.646 17.066 17.066s-7.644 17.068-17.066 17.068zM819.2 59.734c0-9.42 7.646-17.066 17.066-17.066h68.266c9.42 0 17.066 7.646 17.066 17.066v102.4c0 9.42-7.646 17.066-17.066 17.066h-68.266c-9.42 0-17.066-7.646-17.066-17.066v-102.4zM853.334 145.066h34.134v-68.266h-34.134v68.266zM85.334 281.6c-84.362 0-85.334-219.648-85.334-221.866 0-41.216 29.372-75.674 68.266-83.61v-87.058c0-9.42 7.646-17.066 17.066-17.066s17.066 7.646 17.066 17.066v87.058c38.894 7.936 68.266 42.394 68.266 83.61 0.002 2.218-0.97 221.866-85.33 221.866zM85.334 8.534c-28.228 0-51.2 22.972-51.2 51.2 0 85.026 22.836 187.734 51.2 187.734s51.2-102.708 51.2-187.734c0-28.228-22.972-51.2-51.2-51.2zM187.734 384h-68.268c-9.42 0-17.066-7.646-17.066-17.066v-34.134c0-9.42 7.646-17.066 17.066-17.066s17.066 7.646 17.066 17.066v17.066h34.134v-85.334c0-9.42 7.646-17.066 17.066-17.066s17.066 7.646 17.066 17.066v102.4c0.002 9.422-7.644 17.068-17.064 17.068zM836.266 452.266h68.266c9.42 0 17.066 7.646 17.066 17.066v102.4c0 9.42-7.646 17.066-17.066 17.066h-68.266c-9.42 0-17.066-7.646-17.066-17.066v-102.4c0-9.42 7.646-17.066 17.066-17.066zM853.334 554.666h34.134v-68.266h-34.134v68.266zM187.734 588.8h-68.268c-9.42 0-17.066-7.646-17.066-17.066v-102.4c0-9.42 7.646-17.066 17.066-17.066h68.266c9.42 0 17.066 7.646 17.066 17.066v102.4c0.002 9.42-7.644 17.066-17.064 17.066zM170.666 486.4h-34.132v68.266h34.134v-68.266zM546.134 469.334c0-9.42 7.646-17.066 17.066-17.066h68.266c9.42 0 17.066 7.646 17.066 17.066v102.4c0 9.42-7.646 17.066-17.066 17.066h-68.266c-9.42 0-17.066-7.646-17.066-17.066v-102.4zM580.266 554.666h34.134v-68.266h-34.134v68.266zM1006.934 691.2h-204.8c-9.42 0-17.066-7.646-17.066-17.066s7.646-17.066 17.066-17.066h187.734v-685.808c-5.358 1.912-11.042 3.14-17.066 3.14-2.952 0-5.888-0.256-8.772-0.768-11.776 21.214-34.184 34.902-59.494 34.902s-47.718-13.688-59.494-34.902c-2.884 0.512-5.82 0.768-8.772 0.768-28.228 0-51.2-22.972-51.2-51.2s22.972-51.2 51.2-51.2h136.53c28.228 0 51.2 22.972 51.2 51.2v750.934c0 9.42-7.646 17.066-17.066 17.066zM972.8-93.866h-136.534c-9.404 0-17.066 7.662-17.066 17.066s7.662 17.066 17.066 17.066c3.276 0 6.382-0.938 9.25-2.782 4.676-3.004 10.514-3.55 15.668-1.468s8.96 6.554 10.206 11.964c3.602 15.548 17.238 26.42 33.144 26.42s29.542-10.872 33.144-26.42c1.246-5.41 5.052-9.882 10.206-11.964 5.138-2.082 10.99-1.536 15.668 1.468 11.11 7.168 26.316-1.604 26.316-14.284-0.002-9.404-7.664-17.066-17.068-17.066zM563.2 657.066h68.266c9.42 0 17.066 7.646 17.066 17.066v102.4c0 9.42-7.646 17.066-17.066 17.066h-68.266c-9.42 0-17.066-7.646-17.066-17.066v-102.4c0-9.42 7.646-17.066 17.066-17.066zM580.266 759.466h34.134v-68.266h-34.134v68.266zM546.134 264.534c0-9.42 7.646-17.066 17.066-17.066h68.266c9.42 0 17.066 7.646 17.066 17.066v102.4c0 9.42-7.646 17.066-17.066 17.066h-68.266c-9.42 0-17.066-7.646-17.066-17.066v-102.4zM580.266 349.866h34.134v-68.266h-34.134v68.266zM392.534 657.066h68.266c9.42 0 17.066 7.646 17.066 17.066v102.4c0 9.42-7.646 17.066-17.066 17.066h-68.266c-9.42 0-17.066-7.646-17.066-17.066v-102.4c-0.002-9.42 7.644-17.066 17.066-17.066zM409.6 759.466h34.134v-68.266h-34.134v68.266zM499.882 71.85c-3.072-3.242-4.95-7.68-4.95-12.118s1.878-8.874 4.95-12.118c3.242-3.072 7.68-4.95 12.118-4.95s8.874 1.878 12.118 4.95c3.072 3.242 4.95 7.68 4.95 12.118s-1.878 8.874-4.95 12.118c-6.486 6.316-17.75 6.316-24.236 0zM375.466 264.534c0-9.42 7.646-17.066 17.066-17.066h68.268c9.42 0 17.066 7.646 17.066 17.066v102.4c0 9.42-7.646 17.066-17.066 17.066h-68.266c-9.42 0-17.066-7.646-17.066-17.066v-102.4zM409.6 349.866h34.134v-68.266h-34.134v68.266zM341.334 162.134c0-9.42 7.646-17.066 17.066-17.066h51.2v-153.6c0-9.42 7.646-17.066 17.066-17.066s17.066 7.646 17.066 17.066v153.6h136.534v-153.6c0-9.42 7.646-17.066 17.066-17.066s17.066 7.646 17.066 17.066v153.6h51.2c9.42 0 17.066 7.646 17.066 17.066s-7.646 17.066-17.066 17.066h-307.198c-9.42 0-17.066-7.646-17.066-17.066zM819.2 264.534c0-9.42 7.646-17.066 17.066-17.066h68.266c9.42 0 17.066 7.646 17.066 17.066v102.4c0 9.42-7.646 17.066-17.066 17.066h-68.266c-9.42 0-17.066-7.646-17.066-17.066v-102.4zM853.334 349.866h34.134v-68.266h-34.134v68.266zM733.866 896h-443.732c-9.42 0-17.066-7.646-17.066-17.066v-887.466c0-9.42 7.646-17.066 17.066-17.066s17.066 7.646 17.066 17.066v870.4h409.6v-870.4c0-9.42 7.646-17.066 17.066-17.066s17.066 7.646 17.066 17.066v887.466c0.002 9.42-7.644 17.066-17.066 17.066z" />
<glyph unicode="&#xe90c;" glyph-name="check-square" d="M848.964 561.386c-13.601 0-24.633-11.031-24.633-24.633v-615.484h-775.066v775.062h602.646c13.605 0 24.633 11.031 24.633 24.633s-11.027 24.633-24.633 24.633h-627.279c-13.601 0-24.633-11.031-24.633-24.633v-824.328c0-13.601 11.031-24.633 24.633-24.633h824.332c13.601 0 24.633 11.031 24.633 24.633v640.116c0 13.601-11.031 24.633-24.633 24.633zM1016.783 888.783c-9.619 9.619-25.216 9.627-34.835 0l-651.805-651.801-161.726 161.726c-9.619 9.623-25.22 9.623-34.835 0-9.619-9.619-9.619-25.216 0-34.831l179.145-179.145c4.807-4.812 11.113-7.217 17.419-7.217s12.608 2.406 17.419 7.217l669.216 669.216c9.623 9.619 9.623 25.216 0 34.835z" />
<glyph unicode="&#xe90d;" glyph-name="arrows-4" d="M512 896c-282.761 0-512-229.239-512-512 0-282.829 229.239-512 512-512 282.829 0 512 229.171 512 512 0 282.761-229.171 512-512 512zM672.427 359.765l-221.388-221.388c-13.312-13.243-34.954-13.243-48.264 0-13.312 13.312-13.312 35.021 0 48.264l197.359 197.359-197.359 197.359c-13.312 13.312-13.312 34.954 0 48.264s34.954 13.312 48.264 0l221.388-221.388c6.827-6.69 10.036-15.497 9.966-24.235 0-8.807-3.276-17.545-9.966-24.235z" />
<glyph unicode="&#xe90e;" glyph-name="arrows-3" d="M512 896c-282.77 0-512-229.23-512-512s229.23-512 512-512 512 229.23 512 512-229.23 512-512 512zM512 159.737l-288.271 287.332 47.662 47.82 240.608-239.825 240.608 239.825 47.662-47.82-288.271-287.332z" />
<glyph unicode="&#xe90f;" glyph-name="line-chart" d="M938.046 896c-47.564 0-85.957-38.39-85.957-85.957s38.39-85.957 85.957-85.957 85.957 38.39 85.957 85.957c-0.003 47.567-38.394 85.957-85.957 85.957zM938.046 768.254c-23.102 0-41.789 18.687-41.789 41.789s18.687 41.789 41.789 41.789c23.102 0 41.789-18.687 41.789-41.789s-18.687-41.789-41.789-41.789zM85.957 406.084c-47.567 0-85.957-38.394-85.957-85.957s38.39-85.957 85.957-85.957 85.957 38.39 85.957 85.957-38.394 85.957-85.957 85.957zM85.957 278.338c-23.102 0-41.789 18.687-41.789 41.789s18.687 41.789 41.789 41.789c23.102 0 41.789-18.687 41.789-41.789s-18.687-41.789-41.789-41.789zM341.447 661.574c-47.564 0-85.957-38.39-85.957-85.957 0-47.564 38.39-85.957 85.957-85.957 47.564 0 85.957 38.39 85.957 85.957s-38.394 85.957-85.957 85.957zM341.447 533.827c-23.102 0-41.789 18.687-41.789 41.789s18.687 41.789 41.789 41.789c23.102 0 41.789-18.687 41.789-41.789s-18.687-41.789-41.789-41.789zM522.532 480.489c-47.564 0-85.957-38.39-85.957-85.957 0-47.564 38.39-85.957 85.957-85.957s85.957 38.39 85.957 85.957c0 47.564-38.39 85.957-85.957 85.957zM522.532 352.743c-23.102 0-41.789 18.687-41.789 41.789s18.687 41.789 41.789 41.789c23.102 0 41.789-18.687 41.789-41.789s-18.684-41.789-41.789-41.789zM552.216 455.507l324.715 325.359 31.262-31.201-324.715-325.359-31.262 31.201zM371.171 514.87l31.174 31.289 90.976-90.642-31.174-31.289-90.976 90.642zM115.705 381.109l165.040 165.040 31.231-31.231-165.040-165.040-31.231 31.231zM0.678-83.835h1022.643v-44.168h-1022.643v44.168zM915.96 533.149h44.168v-639.066h-44.168v639.066zM511.32 213.447h44.168v-319.364h-44.168v319.364zM63.872 149.572h44.168v-255.49h-44.168v255.49zM319.364 341.531h44.168v-447.448h-44.168v447.448z" />
<glyph unicode="&#xe910;" glyph-name="portfolio" d="M939.558 707.874h-234.412l-18.212 72.852c-9.418 37.664-43.108 63.966-81.924 63.966h-186.022c-38.816 0-72.506-26.304-81.926-63.968l-18.21-72.85h-234.41c-46.56 0-84.442-37.88-84.442-84.442v-615.682c0-46.562 37.882-84.442 84.442-84.442h855.114c46.562 0 84.442 37.882 84.442 84.442v615.682c0.002 46.562-37.88 84.442-84.44 84.442zM368.172 772.944c5.844 23.364 26.742 39.682 50.818 39.682h186.022c24.076 0 44.972-16.318 50.818-39.68l16.266-65.072h-37.464l-14.066 56.264c-1.782 7.138-8.196 12.144-15.554 12.144h-186.022c-7.356 0-13.77-5.006-15.554-12.144l-14.062-56.264h-37.464l16.262 65.070zM601.578 707.874h-179.156l9.086 36.342h160.984l9.086-36.342zM84.442 675.808h855.114c16.010 0 30.354-7.228 39.97-18.582l-104.1-312.298c-9.472-28.416-35.96-47.508-65.914-47.508h-230.172v35.274c0 18.272-14.864 33.136-33.136 33.136h-68.41c-18.272 0-33.136-14.864-33.136-33.136v-35.274h-230.172c-29.952 0-56.442 19.092-65.914 47.506l-104.1 312.3c9.616 11.354 23.96 18.582 39.97 18.582zM476.726 263.214v69.478c0 0.59 0.478 1.068 1.068 1.068h68.41c0.59 0 1.068-0.478 1.068-1.068v-69.478h-70.546zM547.274 231.148v-35.274c0-0.59-0.478-1.068-1.068-1.068h-68.41c-0.59 0-1.068 0.478-1.068 1.068v35.274h70.546zM991.934 7.75c0-28.88-23.496-52.376-52.376-52.376h-855.116c-28.88 0-52.376 23.496-52.376 52.376v585.288l86.084-258.252c13.844-41.53 52.558-69.434 96.336-69.434h230.174v-69.478c0-18.272 14.864-33.136 33.136-33.136h68.41c18.272 0 33.136 14.864 33.136 33.136v69.478h230.174c43.778 0 82.49 27.902 96.336 69.434l86.084 258.252v-585.288z" />
<glyph unicode="&#xe911;" glyph-name="earth-globe" d="M131.652 555.366c9.046-2.646 18.518 2.56 21.146 11.622 50.552 173.62 212.292 294.878 393.336 294.878 28.98 0 57.788-3.020 85.846-9.012-0.614-24.558 9.984-41.404 16.81-52.224 1.894-3.004 4.472-7.1 4.778-7.662 0-61.202-12.51-71.168-12.374-71.202-27.666 0-73.062-24.712-90.13-56.576-10.478-19.542-9.626-40.226 2.372-58.248 8.226-12.34 15.308-26.060 22.17-39.338 14.506-28.092 30.6-59.256 55.876-59.256 5.342 0 11.11 1.4 17.356 4.522 19.9 9.95 34.168 38.246 47.958 65.588 6.076 12.050 15.002 29.73 20.292 35.346 17.322-2.356 25.788-18.022 37.24-42.838 8.43-18.262 17.152-37.12 34.286-45.688 28.842-14.422 123.682 0.682 176.094 22.938 7.834 3.328 12.014 11.93 9.796 20.156-35.822 132.438-133.12 242.602-260.3 294.674-8.72 3.584-18.706-0.598-22.272-9.318s0.614-18.688 9.336-22.254c112.658-46.148 199.92-141.636 236.016-257.298-53.112-18.722-121.276-24.354-133.41-18.364-6.416 3.208-12.868 17.152-18.552 29.458-11.896 25.77-28.194 61.064-69.802 62.908-21.504 1.298-33.622-23.45-49.204-54.358-9.148-18.124-22.954-45.516-33.962-50.928-6.332 1.484-18.91 25.838-26.42 40.38-6.946 13.448-14.814 28.69-24.098 42.598-5.034 7.544-5.24 14.712-0.682 23.21 11.724 21.88 46.9 38.554 60.040 38.554 30.856 0 46.506 35.43 46.506 105.336 0 9.932-5.102 18.022-10.018 25.856-7.236 11.452-14.694 23.312-10.274 43.554 1.962 8.994-3.566 17.938-12.492 20.19-35.344 8.908-71.952 13.43-108.782 13.43-196.13 0-371.354-131.38-426.104-319.488-2.646-9.046 2.576-18.518 11.622-21.146zM750.866 443.392c-4.932-1.4-11.674-3.346-13.466-3.482-23.586 0-38.536-18.262-49.442-31.59-4.164-5.086-11.69-14.216-16.486-14.354-7.714 3.858-15.82 5.802-24.098 5.802-20.122 0-37.546-11.964-41.438-28.484-2.748-11.606 1.298-27.494 20.838-37.274 27.716-13.858 56.372-28.178 69.12-40.926 8.772-8.772 23.944-13.806 41.642-13.806 26.88 0 62.618 13.056 74.888 49.886 4.846 14.506 16.436 25.6 27.648 36.318 13.004 12.476 25.31 24.234 25.48 41.114 0.12 9.968-4.3 19.49-13.108 28.314-11.998 11.98-28.33 18.074-48.572 18.074-19.42 0-38.842-5.548-53.006-9.592zM831.42 407.058c-0.802-3.362-9.302-11.502-14.95-16.912-12.886-12.322-28.912-27.666-36.42-50.194-8.43-25.258-36.898-26.538-42.514-26.538-9.95 0-16.196 2.628-17.494 3.788-16.692 16.692-46.472 31.59-78.012 47.342-0.068 0.034-0.12 0.052-0.188 0.086 3.208 1.314 9.148 1.4 14.37-1.194 5.512-2.764 11.178-4.164 16.81-4.164 18.892 0 30.822 14.574 41.336 27.426 7.698 9.37 15.634 19.080 23.040 19.080 6.058 0 13.108 2.014 22.836 4.796 12.92 3.686 28.996 8.278 43.64 8.278 11.008 0 18.996-2.646 24.422-8.072 2.372-2.392 3.022-3.722 3.124-3.722zM985.634 513.672c-1.298 9.352-10.036 15.854-19.234 14.574-9.336-1.298-15.872-9.916-14.574-19.252 2.594-18.756 3.908-37.854 3.908-56.73 0-224.222-181.078-406.92-404.684-409.566-60.69 38.758-117.572 86.238-92.228 145.356 45.5 106.206 3.158 145.784-14.934 162.714l-3.396 3.226c-5.172 5.154-11.008 8.67-16.146 11.758-12.492 7.492-15.854 9.506-9.148 29.628 4.438 13.364 10.342 19.592 17.152 26.812 15.786 16.692 27.852 33.296 27.852 81.562 0 28.092-14.25 50.5-39.1 61.474-28.178 12.458-65.81 8.056-85.708-10.002-12.424-11.298-16.606-26.676-11.452-42.154 12.168-36.438-15.634-89.106-67.584-128.068-13.756-10.308-17.852-5.58-20.31-2.764-15.24 17.562-14.062 67.516-1.554 80.008 8.38 8.38 10.872 19.080 6.656 28.62-13.824 31.352-102.008 28.928-119.5 28.108-8.312-0.392-15.138-6.708-16.162-14.968-2.168-17.646-3.088-33.126-3.088-51.746 0-204.63 138.564-381.764 336.948-430.78 9.114-2.27 18.398 3.328 20.65 12.476 2.27 9.148-3.328 18.398-12.476 20.65-183.108 45.25-310.988 208.782-310.988 397.658 0 11.844 0.41 22.306 1.314 32.972 28.876 0.034 53.402-3.31 65.912-7.134-19.576-30.566-17.426-90.658 6.502-118.238 17.152-19.764 42.036-20.582 66.578-2.168 65.57 49.17 96.768 114.416 79.48 166.162-0.546 1.69-1.092 3.276 2.048 6.126 8.978 8.158 31.83 11.606 48.93 4.028 12.63-5.58 18.774-15.48 18.774-30.26 0-38.52-7.766-46.746-18.518-58.112-7.97-8.448-17.902-18.944-24.746-39.476-15.342-46.098 9.268-60.876 23.978-69.7 3.806-2.27 7.39-4.42 9.574-6.604 1.246-1.246 2.662-2.578 4.216-4.028 15.018-14.028 42.94-40.158 6.878-124.314-40.892-95.42 64.546-161.946 109.568-190.362 2.73-1.706 5.888-2.628 9.114-2.628 244.668 0 443.734 199.066 443.734 443.734-0.004 20.448-1.42 41.1-4.236 61.408zM831.334 68.796c-82.876-61.748-181.504-94.396-285.202-94.396-263.492 0-477.866 214.358-477.866 477.866 0 9.42-7.646 17.066-17.066 17.066s-17.066-7.646-17.066-17.066c0-276.6 220.502-502.51 494.934-511.574v-51.626c0-9.42 7.646-17.066 17.066-17.066s17.066 7.646 17.066 17.066v51.882c104.806 3.396 204.288 37.7 288.53 100.472 7.56 5.632 9.114 16.316 3.482 23.894-5.634 7.544-16.3 9.114-23.878 3.482zM559.19 204.51c-21.3 0-46.284-24.508-55.398-46.506-7.116-17.186-5-33.212 5.82-44.032 10.188-10.188 25.31-16.042 41.49-16.042s31.3 5.854 41.506 16.042c11.332 11.332 14.098 27.99 7.782 46.882-4.25 12.766-12.68 26.266-22.51 36.114-4.884 4.862-11.522 7.542-18.69 7.542zM568.474 138.12c-7.578-7.578-27.272-7.372-34.646-0.188-0.238 0.734-0.222 5 4.3 12.476 5.888 9.71 14.2 16.572 18.706 19.012 4.846-5.752 9.046-12.954 11.178-19.354 1.896-5.648 2.066-10.358 0.462-11.946z" />
<glyph unicode="&#xe912;" glyph-name="add2" d="M916.122 896h-808.245c-59.584 0-107.878-48.503-107.878-107.878v-808.245c0-59.584 48.503-107.878 107.878-107.878h808.245c59.584 0 107.878 48.503 107.878 107.878v808.245c0 59.374-48.503 107.878-107.878 107.878zM972.779-20.122c0-31.151-25.506-56.657-56.657-56.657h-808.245c-31.151 0-56.657 25.506-56.657 56.657v808.245c0 31.151 25.506 56.657 56.657 56.657h808.245c31.151 0 56.657-25.506 56.657-56.657v-808.245zM705.385 409.506h-167.879v167.879c0 14.216-11.499 25.715-25.715 25.715s-25.715-11.499-25.715-25.715v-167.879h-167.879c-14.216 0-25.715-11.499-25.715-25.506 0-14.216 11.499-25.715 25.715-25.715h167.879v-167.879c0-14.216 11.499-25.715 25.715-25.715s25.715 11.499 25.715 25.715v167.879h167.879c14.216 0 25.715 11.499 25.715 25.715s-11.499 25.506-25.715 25.506z" />
<glyph unicode="&#xe913;" glyph-name="edit" d="M975.219 847.237c-65.054 65.017-170.864 65.017-235.918 0l-668.371-668.371c-0.315-0.315-0.5-0.704-0.778-1.038-0.389-0.445-0.723-0.927-1.075-1.409-0.982-1.372-1.742-2.836-2.317-4.43-0.167-0.482-0.408-0.908-0.537-1.39-0.056-0.185-0.167-0.371-0.222-0.556l-65.517-275.229c-0.297-1.242-0.371-2.502-0.408-3.744 0-0.241-0.074-0.463-0.074-0.704 0.019-2.113 0.482-4.17 1.205-6.153 0.167-0.463 0.352-0.871 0.556-1.316 0.908-1.983 2.039-3.892 3.633-5.486 1.761-1.761 3.837-3.114 6.079-4.040s4.633-1.39 7.024-1.39c1.427 0 2.873 0.167 4.281 0.5l275.229 65.517c0.5 0.111 0.945 0.389 1.427 0.556 0.63 0.204 1.223 0.445 1.835 0.723 1.334 0.612 2.576 1.372 3.725 2.28 0.445 0.352 0.908 0.612 1.334 1.001 0.148 0.148 0.334 0.222 0.482 0.371l668.389 668.389c65.054 65.054 65.054 170.883 0.019 235.918zM949.012 821.030c46.112-46.131 50.042-118.562 12.047-169.345l-181.392 181.392c50.802 37.995 123.232 34.065 169.345-12.047zM857.269 545.801l-183.486 183.486 26.207 26.207 183.486-183.486-26.207-26.207zM91.947-36.035c-7.247 7.247-18.96 7.247-26.207 0l-14.030-14.030 47.336 198.832 81.957 9.1-10.546-94.931c-0.074-0.704 0.185-1.353 0.185-2.039 0-0.704-0.259-1.334-0.185-2.039 0.074-0.612 0.389-1.112 0.519-1.705 0.222-1.075 0.537-2.057 0.927-3.058 0.482-1.205 1.056-2.298 1.761-3.355 0.575-0.853 1.149-1.612 1.853-2.354 0.89-0.945 1.853-1.742 2.91-2.484 0.834-0.575 1.631-1.112 2.558-1.557 1.223-0.575 2.502-0.908 3.837-1.223 0.704-0.167 1.279-0.556 2.002-0.649 0.667-0.074 1.334-0.111 2.020-0.111 0 0 0.019 0 0.019 0s0.019 0 0.019 0h0.019c0 0 0.019 0 0.019 0 0.667 0 1.353 0.037 2.020 0.111l94.931 10.546-9.1-81.957-198.851-47.336 14.030 14.030c7.228 7.228 7.228 18.96 0 26.207zM324.548 65.513l414.752 414.771c7.247 7.247 7.247 18.96 0 26.207s-18.96 7.247-26.207 0l-414.752-414.771-88.462-9.823 9.823 88.462 414.79 414.752c7.247 7.247 7.247 18.96 0 26.207s-18.96 7.247-26.207 0l-414.79-414.752-58.994-6.561 513.075 513.075 183.486-183.486-513.075-513.075 6.561 58.994zM909.683 598.215l-183.486 183.486 26.226 26.226 183.486-183.486-26.226-26.226z" />
<glyph unicode="&#xe914;" glyph-name="like" d="M1022.306 576.139c-14.947 164.519-131.395 283.881-277.126 283.881-97.089 0-185.985-52.247-236.006-135.983-49.568 84.82-134.821 136.003-230.354 136.003-145.712 0-262.179-119.362-277.106-283.881-1.182-7.267-6.026-45.512 8.705-107.881 21.23-89.96 70.266-171.786 141.773-236.577l356.747-323.741 362.871 323.721c71.507 64.811 120.544 146.618 141.773 236.597 14.731 62.349 9.886 100.594 8.724 107.861zM975.239 477.298c-19.378-82.161-64.299-157.016-129.78-216.332l-336.285-300.030-330.515 299.951c-65.599 59.435-110.5 134.27-129.898 216.431-13.943 59.021-8.212 92.362-8.192 92.579l0.295 1.989c12.801 144.136 112.863 248.768 237.956 248.768 92.303 0 173.558-56.717 212.118-147.996l18.138-42.991 18.138 42.991c37.949 89.881 123.498 147.977 217.987 147.977 125.073 0 225.155-104.631 238.212-250.638 0.039-0.315 5.77-33.676-8.173-92.697zM315.075 740.343c-108.59 0-196.934-88.345-196.934-196.934 0-10.89 8.803-19.693 19.693-19.693s19.693 8.803 19.693 19.693c0 86.868 70.68 157.548 157.548 157.548 10.89 0 19.693 8.803 19.693 19.693s-8.823 19.693-19.693 19.693z" />
<glyph unicode="&#xe915;" glyph-name="document" d="M139.8 874v-980h510.8l233.6 231.4v748.6h-744.4zM179.4 832.2h663v-677.6h-200.2c-12.6 0-20.8-10.4-20.8-20.8v-198h-442v896.4zM663.2-35.2v150.2h150.2l-150.2-150.2zM289.8 690.6h440v-41.8h-440v41.8zM289.8 513.2h440v-41.8h-440v41.8zM289.8 336h440v-41.8h-440v41.8z" />
<glyph unicode="&#xe916;" glyph-name="email" d="M988.4-80c0 0 0 451.6 0 602 0 6.2-7.8 14-15.4 19.8l-157.4 114.2v126.2c0 12.4-10.4 20.8-20.8 20.8h-179.4l-91.4 66.6c-6.2 4.2-16.6 4.2-23 0l-91.4-66.6h-179.4c-12.4 0-20.8-10.4-20.8-20.8v-124.8l-159.4-115.8c-9.4-5.8-15.4-13.4-15.4-19.8 0-151.4 0-606 0-606 0-11.8 9.4-20 19.2-20.8 0.6 0 1 0 1.6 0h912c13.4 0.2 21 10.6 21 25zM948.8 484.6v-527.2l-344.2 275.6 344.2 251.6zM933.4 521.2l-117.8-85.8v172.4l117.8-86.6zM511.6 830.2l36.6-27h-73.4l36.8 27zM774 761.4v-356.4l-262.4-191.2-262.4 191.2v356.4h524.8zM74.4 484.6l344.2-251.6-344.2-277.2v528.8zM209.6 433.8l-120.8 88 120.8 87.8v-175.8zM111.8-65.2l340.2 273.8 47-34.4c9-6.8 15.8-6.8 25 0l47 34.4 342.2-273.8h-801.4zM372.2 659.4h281v-39.6h-281v39.6zM372.2 532.4h281v-39.6h-281v39.6zM372.2 405.4h281v-39.6h-281v39.6z" />
<glyph unicode="&#xe917;" glyph-name="book" d="M120.192 596.424c0.534 0 1.077 0.038 1.622 0.118l188.49 27.067c14.643 2.115 29.635 3.185 44.558 3.185 28.182 0 56.233-3.805 83.377-11.311 6.015-1.663 12.252 1.866 13.917 7.888s-1.866 12.252-7.888 13.917c-29.108 8.049-59.188 12.128-89.406 12.128-16.003 0-32.080-1.149-47.782-3.416l-188.481-27.065c-6.183-0.889-10.476-6.621-9.587-12.804 0.808-5.64 5.644-9.707 11.18-9.707zM585.761 615.482c41.884 11.58 84.927 14.313 127.945 8.124l188.481-27.065c0.545-0.079 1.086-0.118 1.622-0.118 5.536 0 10.374 4.067 11.182 9.705 0.889 6.183-3.405 11.915-9.587 12.804l-188.478 27.065c-46.119 6.637-92.284 3.705-137.19-8.712-6.022-1.665-9.553-7.895-7.888-13.917s7.9-9.551 13.915-7.886zM120.192 518.688c0.534 0 1.077 0.038 1.622 0.118l188.49 27.067c14.643 2.115 29.635 3.185 44.558 3.185 28.182 0 56.233-3.805 83.377-11.311 6.015-1.665 12.252 1.866 13.917 7.888s-1.866 12.252-7.888 13.917c-29.108 8.049-59.188 12.128-89.406 12.128-16.003 0-32.080-1.149-47.782-3.416l-188.481-27.065c-6.183-0.889-10.476-6.621-9.587-12.804 0.808-5.64 5.644-9.707 11.18-9.707zM585.761 537.747c41.884 11.58 84.931 14.311 127.945 8.124l188.481-27.065c0.545-0.079 1.086-0.118 1.622-0.118 5.536 0 10.374 4.067 11.182 9.705 0.889 6.183-3.405 11.915-9.587 12.804l-188.478 27.065c-46.119 6.637-92.279 3.708-137.19-8.712-6.022-1.665-9.553-7.895-7.888-13.917s7.9-9.551 13.915-7.886zM120.192 440.953c0.534 0 1.077 0.038 1.622 0.118l188.49 27.067c14.643 2.113 29.635 3.185 44.558 3.185 28.182 0 56.236-3.805 83.377-11.311 6.015-1.665 12.252 1.866 13.917 7.888s-1.866 12.252-7.888 13.917c-29.105 8.049-59.186 12.128-89.406 12.128-16 0-32.080-1.149-47.782-3.416l-188.481-27.065c-6.183-0.889-10.476-6.621-9.587-12.804 0.808-5.64 5.644-9.707 11.18-9.707zM585.761 460.012c41.887 11.58 84.938 14.311 127.945 8.124l188.481-27.065c0.545-0.079 1.086-0.118 1.622-0.118 5.536 0 10.374 4.067 11.182 9.705 0.889 6.183-3.405 11.915-9.587 12.804l-188.478 27.065c-46.126 6.637-92.284 3.705-137.19-8.712-6.022-1.665-9.553-7.895-7.888-13.917s7.9-9.551 13.915-7.886zM120.192 363.217c0.534 0 1.077 0.038 1.622 0.118l188.49 27.067c14.643 2.115 29.635 3.185 44.558 3.185 28.182 0 56.233-3.805 83.377-11.311 6.015-1.663 12.252 1.866 13.917 7.888s-1.866 12.252-7.888 13.917c-29.108 8.049-59.188 12.128-89.406 12.128-16.003 0-32.080-1.149-47.782-3.416l-188.481-27.065c-6.183-0.889-10.476-6.621-9.587-12.804 0.808-5.64 5.644-9.707 11.18-9.707zM585.761 382.276c41.884 11.58 84.927 14.313 127.945 8.124l188.481-27.065c0.545-0.079 1.086-0.118 1.622-0.118 5.536 0 10.374 4.067 11.182 9.705 0.889 6.183-3.405 11.915-9.587 12.804l-188.478 27.065c-46.119 6.637-92.284 3.705-137.19-8.712-6.022-1.665-9.553-7.895-7.888-13.917 1.665-6.020 7.9-9.549 13.915-7.886zM120.192 285.482c0.536 0 1.077 0.038 1.622 0.118l188.487 27.067c14.643 2.113 29.635 3.185 44.558 3.185 28.182 0 56.233-3.805 83.377-11.311 6.015-1.663 12.252 1.866 13.917 7.888s-1.866 12.252-7.888 13.917c-29.108 8.049-59.188 12.128-89.406 12.128-16 0-32.080-1.149-47.782-3.416l-188.481-27.067c-6.183-0.889-10.476-6.621-9.587-12.804 0.81-5.637 5.646-9.705 11.182-9.705zM585.761 304.541c41.887 11.58 84.938 14.311 127.945 8.124l188.481-27.065c0.545-0.079 1.086-0.118 1.622-0.118 5.536 0 10.374 4.067 11.182 9.705 0.889 6.183-3.405 11.915-9.587 12.804l-188.478 27.065c-46.126 6.637-92.284 3.705-137.19-8.712-6.022-1.665-9.553-7.895-7.888-13.917 1.665-6.020 7.9-9.549 13.915-7.886zM120.192 207.746c0.534 0 1.077 0.038 1.622 0.118l188.49 27.067c14.648 2.115 29.639 3.185 44.558 3.185 28.182 0 56.233-3.805 83.377-11.311 6.015-1.665 12.252 1.866 13.917 7.888s-1.866 12.252-7.888 13.917c-29.108 8.049-59.188 12.13-89.406 12.13-15.998 0-32.076-1.149-47.782-3.416l-188.481-27.065c-6.183-0.889-10.476-6.621-9.587-12.804 0.808-5.642 5.644-9.709 11.18-9.709zM585.763 226.805c41.88 11.58 84.925 14.313 127.942 8.124l188.481-27.065c0.545-0.079 1.086-0.118 1.622-0.118 5.536 0 10.374 4.067 11.182 9.705 0.889 6.183-3.405 11.915-9.587 12.804l-188.478 27.065c-46.119 6.637-92.281 3.708-137.192-8.712-6.020-1.665-9.551-7.895-7.886-13.917 1.665-6.020 7.893-9.549 13.917-7.886zM354.86 160.381c28.182 0 56.233-3.805 83.377-11.311 6.015-1.665 12.252 1.866 13.917 7.888s-1.866 12.252-7.888 13.917c-29.108 8.049-59.188 12.128-89.406 12.128-16.003 0-32.080-1.149-47.782-3.416l-188.481-27.065c-6.183-0.889-10.476-6.621-9.587-12.804 0.81-5.637 5.646-9.705 11.182-9.705 0.534 0 1.077 0.038 1.622 0.118l188.49 27.067c14.643 2.111 29.632 3.183 44.556 3.183zM905.401 152.52l-188.478 27.065c-46.119 6.637-92.284 3.708-137.19-8.712-6.022-1.665-9.553-7.895-7.888-13.917s7.902-9.551 13.915-7.888c41.884 11.58 84.927 14.311 127.945 8.124l188.481-27.065c0.545-0.079 1.086-0.118 1.622-0.118 5.536 0 10.374 4.067 11.182 9.705 0.889 6.187-3.402 11.919-9.587 12.806zM1012.689 630.035h-26.59v54.252c0 5.626-4.133 10.397-9.703 11.196l-259.475 37.274c-15.819 2.273-31.768 3.373-47.7 3.353v87.304c0 4.255-2.389 8.148-6.178 10.080-3.791 1.932-8.345 1.57-11.784-0.932l-30.675-22.307-30.675 22.307c-3.436 2.502-7.992 2.862-11.784 0.932s-6.178-5.825-6.178-10.080v-101.708c-20.685-6.228-40.792-14.428-59.948-24.558-62.45 33.019-134.962 45.658-204.922 35.609l-259.475-37.274c-5.567-0.801-9.703-5.569-9.703-11.196v-54.252h-26.59c-6.246 0-11.311-5.065-11.311-11.311v-674.137c0-3.142 1.308-6.144 3.61-8.284 2.099-1.952 4.855-3.027 7.7-3.027 0.276 0 0.55 0.009 0.826 0.029l453.52 33.148h92.688l453.523-33.148c0.276-0.020 0.55-0.029 0.823-0.029 2.848 0 5.603 1.075 7.7 3.027 2.303 2.14 3.61 5.142 3.61 8.284v674.137c-0.002 6.248-5.065 11.311-11.313 11.311zM713.705 710.365l249.772-35.878v-622.616l-246.555 35.417c-65.775 9.449-133.808-1.163-193.611-29.911v620.157c58.077 30.508 125.413 42.165 190.394 32.831zM92.433 33.599l217.862 31.295c64.979 9.332 132.315-2.321 190.394-32.831v-12.652c-35.351 16.091-75.288 23.972-121.502 23.972-22.418 0-45.999-1.821-72.317-5.601l-214.437-35.127v30.944zM476.552 4.903c10.42-3.855 20.405-8.402 29.972-13.698 3.409-1.884 7.542-1.884 10.953 0 9.583 5.303 19.554 9.881 29.972 13.747v-15.878h-70.897v15.828zM523.311 19.436v12.628c58.082 30.51 125.422 42.165 190.394 32.831l217.862-31.295v-30.947l-214.636 35.163c-79.127 11.349-141.253 5.517-193.62-18.38zM594.57 801.201l19.364-14.082c3.963-2.884 9.341-2.884 13.304 0l19.364 14.082v-65.884c-17.512-1.201-34.919-3.762-52.030-7.651v73.535zM60.522 674.485l249.772 35.878c64.979 9.334 132.315-2.321 190.394-32.831v-620.182c-45.558 21.9-95.876 33.299-146.354 33.299-15.783 0-31.587-1.113-47.257-3.364l-246.555-35.417v622.616zM22.622-43.245v650.658h15.279v-568.595c0-3.28 1.423-6.4 3.905-8.549 2.477-2.147 5.771-3.113 9.015-2.649l18.991 2.728v-41.011c0-3.319 1.459-6.472 3.988-8.621s5.873-3.079 9.151-2.543l227.354 37.247c25.020 3.592 47.551 5.336 68.881 5.336 27.212 0 51.985-2.914 74.743-8.791v-23.692l-431.306-31.519zM1001.378-43.245l-431.308 31.524v23.744c40.389 10.458 87.246 11.492 143.425 3.436l227.553-37.281c0.611-0.1 1.222-0.149 1.83-0.149 2.663 0 5.264 0.941 7.323 2.69 2.529 2.149 3.988 5.3 3.988 8.621v41.011l18.993-2.728c0.536-0.077 1.075-0.115 1.608-0.115 2.703 0 5.336 0.97 7.406 2.762 2.479 2.149 3.905 5.266 3.905 8.549v568.595h15.279v-650.658z" />
<glyph unicode="&#xe918;" glyph-name="shopping-bag" d="M921.091 8.505l-58.926 664.084c-1.060 13.142-12.082 23.104-25.436 23.104h-124.211c-0.212 110.433-90.085 200.306-200.518 200.306s-200.306-89.873-200.518-200.306h-124.211c-13.142 0-24.164-9.962-25.436-23.104l-58.926-664.084c0-0.848 0-1.484 0-2.332 0-73.976 68.041-134.173 151.555-134.173h515.073c83.514 0 151.555 60.198 151.555 134.173 0 0.848 0 1.484 0 2.332zM512 845.129c82.454 0 149.435-66.981 149.647-149.435h-299.294c0.212 82.454 67.193 149.435 149.647 149.435zM769.537-76.917h-515.073c-55.111 0-100.047 36.67-100.683 82.242l56.806 639.497h100.895v-89.237c0-13.99 11.446-25.436 25.436-25.436s25.436 11.446 25.436 25.436v89.237h299.294v-89.237c0-13.99 11.446-25.436 25.436-25.436s25.436 11.446 25.436 25.436v89.237h100.895l56.806-639.709c-0.636-45.36-45.572-82.030-100.683-82.030z" />
<glyph unicode="&#xe919;" glyph-name="heart" d="M941.29 750.55c-53.62 53.62-124.608 82.927-200.371 82.927s-146.968-29.524-200.588-83.144l-28.004-28.004-28.438 28.438c-53.62 53.62-125.042 83.361-200.805 83.361-75.546 0-146.751-29.524-200.154-82.927-53.62-53.62-83.144-124.825-82.927-200.588 0-75.763 29.741-146.751 83.361-200.371l407.689-407.689c5.644-5.644 13.242-8.683 20.623-8.683s14.979 2.822 20.623 8.466l408.557 407.038c53.62 53.62 83.144 124.825 83.144 200.588 0.217 75.763-29.090 146.968-82.71 200.588zM899.609 390.837l-387.934-386.414-387.066 387.066c-42.549 42.549-65.994 98.992-65.994 159.125s23.228 116.576 65.777 158.907c42.332 42.332 98.774 65.777 158.69 65.777 60.133 0 116.793-23.445 159.342-65.994l49.062-49.062c11.506-11.506 29.958-11.506 41.464 0l48.627 48.627c42.549 42.549 99.209 65.994 159.125 65.994s116.358-23.445 158.907-65.777c42.549-42.549 65.777-98.992 65.777-159.125 0.217-60.133-23.228-116.576-65.777-159.125z" />
<glyph unicode="&#xe91a;" glyph-name="reload" d="M234.521 692.938c151.181 136.753 377.431 138.844 530.703 14.010l-121.489-4.6c-15.683-0.627-27.811-13.592-27.183-29.274 0.627-15.265 13.173-27.183 28.229-27.183 0.418 0 0.627 0 1.046 0l186.52 6.9c15.265 0.627 27.183 12.964 27.183 28.229v2.091c0 0.418 0 0.627 0 1.046v0.209l-6.9 184.429c-0.627 15.683-13.801 27.811-29.274 27.183-15.683-0.627-27.811-13.592-27.183-29.274l4.391-115.634c-75.904 62.104-169.373 98.069-269.325 103.088-123.789 6.273-242.768-36.175-334.565-119.398-126.298-114.379-179.829-288.353-139.681-453.962 3.137-12.964 14.637-21.538 27.392-21.538 2.3 0 4.391 0.209 6.691 0.836 15.055 3.764 24.465 19.028 20.701 34.084-35.129 145.536 11.71 298.39 122.743 398.759zM967.009 487.181c-3.764 15.055-19.028 24.465-34.084 20.701s-24.465-19.028-20.701-34.084c35.338-145.536-11.71-298.39-122.743-398.759-77.995-70.468-175.856-105.179-273.298-105.179-93.051 0-185.892 31.575-260.751 93.887l122.953 11.082c15.474 1.464 26.974 15.055 25.511 30.738s-15.055 26.974-30.738 25.511l-185.892-16.728c-15.474-1.464-26.974-15.055-25.511-30.738l16.728-185.892c1.255-14.637 13.592-25.72 28.020-25.72 0.836 0 1.673 0 2.509 0.209 15.474 1.464 26.974 15.055 25.511 30.738l-10.037 113.125c75.904-61.476 168.955-97.233 268.279-102.251 7.946-0.418 15.892-0.627 23.629-0.627 115.216 0 224.786 42.239 310.936 120.025 126.298 114.379 179.829 288.144 139.681 453.962z" />
<glyph unicode="&#xe91b;" glyph-name="phone-call" d="M809.283 261.668c-20.964 21.828-46.25 33.499-73.049 33.499-26.583 0-52.085-11.454-73.914-33.283l-68.295-68.078c-5.619 3.026-11.238 5.835-16.641 8.645-7.78 3.89-15.129 7.564-21.396 11.454-63.972 40.631-122.109 93.581-177.869 162.092-27.015 34.147-45.17 62.892-58.353 92.068 17.722 16.209 34.147 33.067 50.14 49.276 6.051 6.051 12.103 12.319 18.154 18.37 45.386 45.386 45.386 104.171 0 149.557l-59.001 59.001c-6.7 6.7-13.616 13.616-20.099 20.532-12.967 13.4-26.583 27.231-40.631 40.199-20.964 20.748-46.034 31.77-72.401 31.77s-51.869-11.022-73.482-31.77c-0.216-0.216-0.216-0.216-0.432-0.432l-73.482-74.13c-27.664-27.664-43.441-61.379-46.899-100.497-5.187-63.108 13.4-121.893 27.664-160.363 35.012-94.445 87.313-181.975 165.333-275.772 94.662-113.032 208.558-202.29 338.664-265.182 49.708-23.557 116.058-51.437 190.188-56.192 4.539-0.216 9.293-0.432 13.616-0.432 49.924 0 91.852 17.938 124.703 53.598 0.216 0.432 0.648 0.648 0.864 1.081 11.238 13.616 24.206 25.935 37.821 39.118 9.293 8.861 18.803 18.154 28.096 27.88 21.396 22.261 32.634 48.195 32.634 74.778 0 26.799-11.454 52.518-33.283 74.13l-118.651 119.083zM886.654 34.092c-0.216 0-0.216-0.216 0 0-8.429-9.077-17.074-17.29-26.367-26.367-14.048-13.4-28.312-27.448-41.712-43.224-21.828-23.341-47.547-34.363-81.262-34.363-3.242 0-6.7 0-9.942 0.216-64.188 4.106-123.838 29.176-168.575 50.573-122.325 59.217-229.738 143.289-318.996 249.837-73.698 88.826-122.974 170.953-155.608 259.131-20.099 53.814-27.448 95.742-24.206 135.293 2.161 25.286 11.887 46.25 29.825 64.188l73.698 73.698c10.59 9.942 21.828 15.345 32.851 15.345 13.616 0 24.638-8.213 31.554-15.129 0.216-0.216 0.432-0.432 0.648-0.648 13.183-12.319 25.719-25.070 38.902-38.686 6.7-6.916 13.616-13.832 20.532-20.964l59.001-59.001c22.909-22.909 22.909-44.089 0-66.998-6.268-6.268-12.319-12.535-18.587-18.587-18.154-18.587-35.444-35.876-54.247-52.734-0.432-0.432-0.864-0.648-1.081-1.081-18.587-18.587-15.129-36.741-11.238-49.060 0.216-0.648 0.432-1.297 0.648-1.945 15.345-37.173 36.957-72.185 69.807-113.896l0.216-0.216c59.65-73.482 122.541-130.754 191.917-174.627 8.861-5.619 17.938-10.158 26.583-14.48 7.78-3.89 15.129-7.564 21.396-11.454 0.864-0.432 1.729-1.081 2.593-1.513 7.348-3.674 14.264-5.403 21.396-5.403 17.938 0 29.176 11.238 32.851 14.912l73.914 73.914c7.348 7.348 19.019 16.209 32.634 16.209 13.4 0 24.422-8.429 31.122-15.777 0.216-0.216 0.216-0.216 0.432-0.432l119.083-119.083c22.261-22.044 22.261-44.737 0.216-67.646zM553.394 652.417c56.624-9.509 108.061-36.309 149.124-77.372s67.646-92.5 77.372-149.124c2.377-14.264 14.696-24.206 28.744-24.206 1.729 0 3.242 0.216 4.971 0.432 15.993 2.593 26.583 17.722 23.99 33.715-11.671 68.511-44.089 130.97-93.581 180.462s-111.951 81.91-180.462 93.581c-15.993 2.593-30.905-7.997-33.715-23.773s7.564-31.122 23.557-33.715zM1022.811 444.292c-19.235 112.816-72.401 215.474-154.095 297.168s-184.352 134.86-297.168 154.095c-15.777 2.81-30.689-7.997-33.499-23.773-2.593-15.993 7.997-30.905 23.99-33.715 100.713-17.074 192.565-64.837 265.614-137.67 73.049-73.049 120.596-164.901 137.67-265.614 2.377-14.264 14.696-24.206 28.744-24.206 1.729 0 3.242 0.216 4.971 0.432 15.777 2.377 26.583 17.506 23.773 33.283z" />
<glyph unicode="&#xe91c;" glyph-name="envelope" d="M898.993 773.641h-773.774c-69.072 0-125.219-56.147-125.219-125.219v-528.844c0-69.072 56.147-125.219 125.219-125.219h773.562c69.072 0 125.219 56.147 125.219 125.219v528.632c0.212 69.072-55.935 125.431-125.007 125.431zM967.005 119.578c0-37.502-30.51-68.012-68.012-68.012h-773.774c-37.502 0-68.012 30.51-68.012 68.012v528.632c0 37.502 30.51 68.012 68.012 68.012h773.562c37.502 0 68.012-30.51 68.012-68.012v-528.632h0.212zM645.8 390.568l250.438 224.589c11.653 10.594 12.713 28.603 2.119 40.468-10.594 11.653-28.603 12.713-40.468 2.119l-345.359-309.976-67.377 60.173c-0.212 0.212-0.424 0.424-0.424 0.636-1.483 1.483-2.966 2.754-4.661 4.026l-274.168 245.353c-11.865 10.594-29.875 9.534-40.468-2.331s-9.534-29.875 2.331-40.468l253.405-226.496-252.345-236.242c-11.441-10.806-12.077-28.815-1.271-40.468 5.721-5.933 13.348-9.111 20.976-9.111 6.992 0 13.984 2.543 19.493 7.628l256.159 239.633 69.496-62.080c5.509-4.873 12.289-7.204 19.069-7.204s13.772 2.543 19.069 7.416l71.402 63.987 254.676-241.963c5.509-5.297 12.713-7.839 19.705-7.839 7.628 0 15.043 2.966 20.764 8.899 10.806 11.441 10.382 29.663-1.059 40.468l-251.498 238.785z" />
<glyph unicode="&#xe91d;" glyph-name="link" d="M962.16 834c-82.496 82.656-216.72 82.688-299.152 0l-185.216-185.904c-12.608-12.656-12.608-33.184 0-45.84 12.64-12.672 33.072-12.672 45.696 0l185.216 185.888c57.248 57.424 150.416 57.392 207.744 0 57.248-57.456 57.248-150.96 0-208.384l-244.672-245.424c-27.712-27.824-64.608-43.152-103.84-43.152-39.216 0-76.128 15.344-103.872 43.152-12.624 12.672-33.072 12.672-45.712 0-12.608-12.656-12.608-33.184 0-45.84 39.984-40.080 93.088-62.16 149.6-62.16s109.568 22.096 149.552 62.16l244.672 245.408c82.432 82.72 82.432 217.344-0.016 300.096zM496.24 161.536l-180.992-181.536c-27.712-27.824-64.624-43.152-103.856-43.152-39.216 0-76.144 15.328-103.824 43.152-57.248 57.456-57.248 150.944 0 208.368l244.624 245.408c57.312 57.408 150.496 57.408 207.728 0 12.624-12.688 33.072-12.688 45.696 0 12.624 12.656 12.624 33.152 0 45.824-82.432 82.72-216.656 82.72-299.152 0l-244.608-245.376c-82.48-82.72-82.48-217.344 0-300.064 39.952-40.096 93.056-62.16 149.536-62.16 56.496 0 109.648 22.064 149.568 62.16l180.96 181.52c12.64 12.656 12.64 33.184 0 45.84-12.608 12.672-33.072 12.672-45.68 0.016z" />
<glyph unicode="&#xe91e;" glyph-name="cancel" d="M581.458 384l428.205 428.205c19.181 19.181 19.181 50.277 0 69.458s-50.277 19.181-69.458 0l-428.205-428.205-428.205 428.14c-19.181 19.181-50.277 19.181-69.458 0s-19.181-50.277 0-69.458l428.205-428.205-428.14-428.14c-19.181-19.181-19.181-50.277 0-69.458 9.623-9.558 22.127-14.402 34.696-14.402s25.138 4.779 34.696 14.402l428.205 428.205 428.205-428.205c9.623-9.558 22.127-14.402 34.696-14.402s25.138 4.779 34.696 14.402c19.181 19.181 19.181 50.277 0 69.458l-428.14 428.205z" />
<glyph unicode="&#xe91f;" glyph-name="photo-camera" d="M942.097 631.467h-145.476l-68.267 170.667h-432.708l-68.267-170.667h-22.579v85.333h-102.4v-85.333h-20.497c-45.175 0-81.903-36.727-81.903-81.903v-501.214c0-45.483 37.001-82.483 82.483-82.483h859.034c45.483 0 82.483 37.001 82.483 82.483v501.214c0 45.175-36.727 81.903-81.903 81.903zM136.533 682.667h34.133v-51.2h-34.133v51.2zM989.867 48.35c0-26.675-21.692-48.35-48.35-48.35h-859.034c-26.658 0-48.35 21.692-48.35 48.35v501.214c0 26.334 21.436 47.77 47.77 47.77h168.585l68.267 170.667h386.492l68.267-170.667h168.585c26.334 0 47.77-21.436 47.77-47.77v-501.214zM512 648.533c-169.387 0-307.2-137.813-307.2-307.2s137.813-307.2 307.2-307.2 307.2 137.813 307.2 307.2-137.813 307.2-307.2 307.2zM512 68.267c-150.562 0-273.067 122.505-273.067 273.067s122.505 273.067 273.067 273.067 273.067-122.505 273.067-273.067-122.505-273.067-273.067-273.067zM512 546.133c-112.93 0-204.8-91.87-204.8-204.8s91.87-204.8 204.8-204.8 204.8 91.87 204.8 204.8-91.87 204.8-204.8 204.8zM512 170.667c-94.106 0-170.667 76.561-170.667 170.667s76.561 170.667 170.667 170.667 170.667-76.561 170.667-170.667-76.561-170.667-170.667-170.667zM887.467 563.2c-37.649 0-68.267-30.618-68.267-68.267s30.618-68.267 68.267-68.267 68.267 30.618 68.267 68.267-30.618 68.267-68.267 68.267zM887.467 460.8c-18.825 0-34.133 15.309-34.133 34.133s15.309 34.133 34.133 34.133 34.133-15.309 34.133-34.133-15.309-34.133-34.133-34.133z" />
<glyph unicode="&#xe920;" glyph-name="idea" d="M512 744.296c-177.759 0-322.37-144.612-322.37-322.37 0-134.865 83.266-254.331 208.593-301.511v-172.563c0-10.487 8.476-18.963 18.963-18.963h18.963v-37.926c0-10.487 8.476-18.963 18.963-18.963h113.778c10.487 0 18.963 8.476 18.963 18.963v37.926h18.963c10.487 0 18.963 8.476 18.963 18.963v172.563c125.326 47.18 208.593 166.647 208.593 301.511 0 177.759-144.612 322.37-322.37 322.37zM568.889-33.185c-10.487 0-18.963-8.476-18.963-18.963v-37.926h-75.852v37.926c0 10.487-8.476 18.963-18.963 18.963h-18.963v94.815h151.704v-94.815h-18.963zM600.898 151.855c-7.794-2.56-13.047-9.842-13.047-18.015v-34.285h-151.704v34.285c0 8.192-5.253 15.455-13.047 18.015-116.945 38.457-195.546 147.001-195.546 270.071 0 156.843 127.602 284.444 284.444 284.444s284.444-127.602 284.444-284.444c0-123.070-78.601-231.614-195.546-270.071zM512 782.222c10.487 0 18.963 8.476 18.963 18.963v75.852c0 10.487-8.476 18.963-18.963 18.963s-18.963-8.476-18.963-18.963v-75.852c0-10.487 8.476-18.963 18.963-18.963zM967.111 440.889h-75.852c-10.487 0-18.963-8.476-18.963-18.963s8.476-18.963 18.963-18.963h75.852c10.487 0 18.963 8.476 18.963 18.963s-8.476 18.963-18.963 18.963zM132.741 440.889h-75.852c-10.487 0-18.963-8.476-18.963-18.963s8.476-18.963 18.963-18.963h75.852c10.487 0 18.963 8.476 18.963 18.963s-8.476 18.963-18.963 18.963zM820.414 757.153l-53.627-53.627c-7.415-7.415-7.415-19.399 0-26.814 3.698-3.698 8.552-5.556 13.407-5.556s9.709 1.858 13.407 5.556l53.627 53.627c7.415 7.415 7.415 19.399 0 26.814s-19.418 7.396-26.814 0zM230.4 167.14l-53.627-53.627c-7.415-7.415-7.415-19.399 0-26.814 3.698-3.698 8.552-5.556 13.407-5.556s9.709 1.858 13.407 5.556l53.627 53.627c7.415 7.415 7.415 19.399 0 26.814s-19.399 7.415-26.814 0zM793.6 167.14c-7.415 7.415-19.399 7.415-26.814 0s-7.415-19.399 0-26.814l53.627-53.627c3.698-3.698 8.552-5.556 13.407-5.556s9.709 1.858 13.407 5.556c7.415 7.415 7.415 19.399 0 26.814l-53.627 53.627zM230.4 676.712c3.698-3.698 8.552-5.556 13.407-5.556s9.709 1.858 13.407 5.556c7.415 7.415 7.415 19.399 0 26.814l-53.627 53.627c-7.415 7.415-19.399 7.415-26.814 0s-7.415-19.399 0-26.814l53.627-53.627zM512 649.481c-125.478 0-227.556-102.078-227.556-227.556 0-10.487 8.476-18.963 18.963-18.963s18.963 8.476 18.963 18.963c0 104.562 85.068 189.63 189.63 189.63 10.487 0 18.963 8.476 18.963 18.963s-8.476 18.963-18.963 18.963z" />
<glyph unicode="&#xe921;" glyph-name="user" d="M874.095 746.074c-199.648 199.651-524.504 199.651-724.152 0-70.048-70.048-117.964-158.050-138.571-254.496-20.062-93.91-13.491-191.207 19.003-281.366 3.904-10.827 15.849-16.44 26.672-12.539 10.83 3.904 16.443 15.846 12.539 26.672-29.854 82.837-35.891 172.232-17.454 258.529 18.92 88.558 62.935 169.384 127.283 233.732 183.399 183.399 481.809 183.399 665.208 0 87.339-87.342 136.23-203.441 137.665-326.916 1.435-123.25-44.498-240.276-129.329-329.515-1.004-1.056-1.997-2.119-2.991-3.182-1.758-1.879-3.512-3.762-5.346-5.596-183.399-183.399-481.809-183.399-665.208 0-0.976 0.976-1.928 1.969-2.869 2.963-0.049 1.924-0.090 3.821-0.090 5.689 0 4.196 0.080 8.374 0.233 12.539 0.052 1.393 0.156 2.772 0.226 4.161 0.135 2.768 0.264 5.537 0.465 8.291 0.122 1.643 0.299 3.268 0.445 4.904 0.219 2.483 0.424 4.967 0.695 7.437 0.191 1.744 0.441 3.473 0.66 5.21 0.295 2.345 0.577 4.696 0.924 7.030 0.264 1.778 0.577 3.539 0.868 5.307 0.372 2.275 0.733 4.55 1.153 6.811 0.33 1.789 0.709 3.56 1.070 5.339 0.448 2.22 0.889 4.442 1.382 6.648 0.399 1.789 0.844 3.567 1.271 5.346 0.521 2.171 1.039 4.342 1.601 6.495 0.469 1.785 0.976 3.557 1.469 5.332 0.594 2.126 1.184 4.255 1.82 6.367 0.531 1.771 1.101 3.529 1.664 5.287 0.667 2.088 1.334 4.179 2.039 6.249 0.597 1.747 1.223 3.484 1.848 5.221 0.74 2.056 1.483 4.113 2.261 6.155 0.66 1.726 1.344 3.435 2.032 5.148 0.809 2.018 1.626 4.036 2.473 6.037 0.722 1.702 1.466 3.39 2.216 5.078 0.879 1.983 1.768 3.96 2.685 5.922 0.782 1.671 1.58 3.331 2.39 4.988 0.952 1.949 1.914 3.894 2.9 5.821 0.837 1.632 1.688 3.258 2.553 4.877 1.021 1.917 2.060 3.828 3.119 5.728 0.893 1.598 1.796 3.189 2.713 4.769 1.091 1.879 2.199 3.748 3.328 5.61 0.948 1.563 1.907 3.119 2.879 4.668 1.16 1.841 2.338 3.671 3.532 5.488 1 1.525 2.008 3.043 3.032 4.55 1.226 1.806 2.48 3.591 3.744 5.373 1.052 1.483 2.105 2.963 3.182 4.425 1.296 1.764 2.619 3.512 3.949 5.248 1.101 1.438 2.199 2.876 3.324 4.297 1.365 1.726 2.761 3.432 4.161 5.13 1.143 1.389 2.285 2.779 3.453 4.151 1.438 1.688 2.907 3.352 4.38 5.012 1.188 1.341 2.369 2.685 3.578 4.005 1.507 1.646 3.046 3.262 4.588 4.877 1.23 1.292 2.452 2.588 3.703 3.862 1.58 1.605 3.196 3.175 4.807 4.752 1.264 1.233 2.518 2.48 3.803 3.696 1.66 1.57 3.359 3.102 5.050 4.637 1.292 1.171 2.567 2.355 3.876 3.508 1.747 1.539 3.539 3.032 5.321 4.536 1.306 1.101 2.598 2.22 3.921 3.303 1.844 1.507 3.734 2.97 5.616 4.442 1.313 1.025 2.605 2.074 3.932 3.081 1.983 1.504 4.008 2.956 6.030 4.415 1.275 0.924 2.525 1.869 3.817 2.775 2.23 1.567 4.512 3.077 6.787 4.595 1.122 0.747 2.22 1.521 3.348 2.258 2.966 1.928 5.985 3.793 9.024 5.634 0.472 0.285 0.931 0.59 1.407 0.875 3.515 2.105 7.079 4.147 10.684 6.134 1.233 0.677 2.501 1.313 3.748 1.976 2.393 1.278 4.779 2.567 7.214 3.789 1.56 0.785 3.157 1.521 4.731 2.282 1.987 0.962 3.967 1.935 5.978 2.862 37.773-36.082 88.162-56.509 140.464-56.509s102.695 20.431 140.468 56.516c73.737-34.126 134.087-95.359 166.852-169.821 4.634-10.531 16.926-15.321 27.468-10.684 10.535 4.637 15.318 16.936 10.681 27.468-35.839 81.451-98.231 146.539-177.206 185.83 22.914 33.612 35.311 73.303 35.311 114.261 0 112.25-91.323 203.573-203.573 203.573-11.507 0-20.84-9.333-20.84-20.84s9.333-20.84 20.84-20.84c89.27 0 161.892-72.625 161.892-161.892 0-39.916-14.835-78.353-41.768-108.221-0.003-0.003-0.007-0.007-0.010-0.010-30.753-34.102-74.532-53.661-120.117-53.661s-89.367 19.559-120.117 53.661c-0.003 0.007-0.010 0.010-0.017 0.014-26.929 29.878-41.761 68.304-41.761 108.214 0 43.57 17.058 84.445 48.034 115.088 8.183 8.096 8.253 21.292 0.156 29.472-8.093 8.187-21.288 8.249-29.472 0.16-38.947-38.52-60.399-89.916-60.399-144.705 0-40.917 12.365-80.579 35.241-114.174-0.205-0.101-0.403-0.212-0.604-0.316-1.626-0.813-3.213-1.674-4.825-2.504-2.47-1.278-4.946-2.549-7.381-3.88-1.723-0.938-3.407-1.924-5.113-2.886-2.275-1.289-4.554-2.57-6.797-3.901-1.74-1.035-3.453-2.105-5.175-3.164-2.154-1.327-4.307-2.65-6.429-4.015-1.733-1.115-3.435-2.261-5.148-3.4-2.060-1.372-4.116-2.751-6.144-4.161-1.705-1.188-3.39-2.4-5.075-3.612-1.98-1.428-3.953-2.862-5.901-4.324-1.671-1.254-3.321-2.525-4.967-3.803-1.91-1.483-3.807-2.977-5.682-4.495-1.626-1.313-3.237-2.643-4.842-3.981-1.844-1.542-3.675-3.102-5.488-4.679-1.573-1.365-3.136-2.741-4.686-4.133-1.789-1.608-3.553-3.234-5.307-4.873-1.514-1.414-3.025-2.831-4.519-4.272-1.733-1.674-3.439-3.373-5.141-5.078-1.452-1.455-2.904-2.907-4.328-4.383-1.685-1.747-3.338-3.526-4.988-5.304-1.379-1.487-2.768-2.966-4.123-4.477-1.65-1.834-3.255-3.706-4.866-5.571-1.296-1.501-2.602-2.987-3.873-4.505-1.636-1.956-3.22-3.949-4.814-5.936-1.184-1.48-2.393-2.938-3.557-4.436-1.674-2.154-3.293-4.349-4.918-6.537-1.021-1.375-2.070-2.727-3.070-4.116-2.056-2.848-4.047-5.738-6.019-8.642-0.518-0.764-1.066-1.507-1.58-2.275-2.456-3.668-4.842-7.378-7.166-11.129-0.802-1.296-1.556-2.619-2.341-3.921-1.504-2.497-3.015-4.991-4.463-7.523-0.903-1.58-1.758-3.189-2.636-4.783-1.268-2.292-2.543-4.578-3.758-6.898-0.903-1.719-1.758-3.46-2.636-5.193-1.132-2.237-2.268-4.47-3.355-6.731-0.865-1.799-1.688-3.619-2.525-5.429-1.028-2.233-2.060-4.463-3.046-6.718-0.813-1.858-1.591-3.734-2.372-5.606-0.941-2.247-1.876-4.495-2.772-6.759-0.754-1.903-1.476-3.817-2.199-5.731-0.854-2.272-1.698-4.547-2.511-6.836-0.688-1.942-1.355-3.894-2.015-5.849-0.775-2.296-1.528-4.599-2.258-6.916-0.622-1.969-1.223-3.946-1.813-5.926-0.695-2.338-1.365-4.682-2.015-7.037-0.549-1.987-1.087-3.977-1.605-5.978-0.615-2.379-1.198-4.769-1.768-7.166-0.476-2.001-0.948-3.998-1.389-6.006-0.535-2.428-1.032-4.87-1.518-7.315-0.399-2.001-0.806-4.001-1.174-6.012-0.455-2.494-0.865-5.002-1.271-7.513-0.32-1.98-0.656-3.956-0.945-5.943-0.379-2.591-0.698-5.196-1.025-7.801-0.24-1.931-0.504-3.859-0.716-5.797-0.299-2.73-0.528-5.478-0.768-8.225-0.16-1.83-0.351-3.654-0.483-5.495-0.222-3.067-0.368-6.148-0.518-9.232-0.073-1.532-0.188-3.053-0.243-4.588-0.167-4.627-0.261-9.271-0.261-13.932 0-5.033 0.17-9.792 0.375-15.047 0.049-1.216 0.219-2.397 0.462-3.55 0.021-0.090 0.031-0.181 0.052-0.271 0.257-1.136 0.618-2.226 1.052-3.282 0.042-0.104 0.080-0.208 0.125-0.313 0.448-1.042 0.983-2.035 1.587-2.98 0.076-0.118 0.149-0.236 0.226-0.351 0.622-0.927 1.313-1.799 2.067-2.612 0.056-0.059 0.094-0.132 0.149-0.191l2.751-2.928c2.077-2.223 4.154-4.439 6.322-6.603 99.826-99.826 230.95-149.738 362.078-149.738s262.252 49.913 362.078 149.738c2.167 2.164 4.244 4.383 6.322 6.603l2.751 2.928c92.354 97.154 142.357 224.545 140.798 358.715-1.553 134.438-54.779 260.835-149.86 355.916z" />
<glyph unicode="&#xe922;" glyph-name="placeholder" d="M512-128c-8.045 0-15.727 3.297-21.299 9.133-15.397 16.386-377.579 402.703-377.579 615.989 0 219.947 178.931 398.878 398.878 398.878 219.914 0 398.878-178.931 398.878-398.878 0-213.32-362.149-599.636-377.579-615.989-5.539-5.836-13.254-9.133-21.299-9.133zM512 837.51c-187.668 0-340.355-152.687-340.355-340.355 0-147.675 228.585-429.771 340.355-552.818 111.803 123.079 340.355 405.109 340.355 552.818 0.033 187.668-152.687 340.355-340.355 340.355zM512 372.295c-93.043 0-168.71 75.667-168.71 168.71 0 93.010 75.667 168.71 168.71 168.71 93.010 0 168.71-75.7 168.71-168.71 0-93.043-75.667-168.71-168.71-168.71zM512 651.194c-60.798 0-110.221-49.423-110.221-110.188 0-60.798 49.423-110.221 110.221-110.221 60.765 0 110.188 49.423 110.188 110.221 0 60.765-49.423 110.188-110.188 110.188z" />
<glyph unicode="&#xe923;" glyph-name="loupe" d="M139.562 626.873c-25.093-93.663-12.215-191.496 36.269-275.476 64.661-111.995 185.246-181.569 314.695-181.569 48.856 0 97.264 10.043 142.158 29.217l188.818-327.039 75.453 43.564-188.824 327.050c64.905 48.519 111.466 116.85 132.76 196.34 25.093 93.663 12.215 191.496-36.269 275.476-64.655 111.989-185.24 181.563-314.69 181.563-63.383 0-126.045-16.839-181.221-48.693-83.98-48.484-144.046-126.771-169.151-220.434zM489.933 808.872c98.42 0 190.096-52.881 239.242-138.005 36.849-63.824 46.637-138.179 27.562-209.363-19.069-71.184-64.725-130.686-128.549-167.53-41.949-24.216-89.545-37.018-137.657-37.018-98.42 0-190.096 52.881-239.242 138.005-36.849 63.824-46.637 138.174-27.562 209.357 19.075 71.19 64.725 130.686 128.549 167.536 41.949 24.216 89.545 37.018 137.657 37.018z" />
<glyph unicode="&#xe924;" glyph-name="play-store" d="M917.255 481.731l-698.786 399.432c-16.981 9.708-36.301 14.837-55.862 14.837-19.816 0-39.35-5.257-56.49-15.201-34.59-20.066-56.076-57.373-56.076-97.365v-798.868c0-39.987 21.486-77.294 56.067-97.36 17.14-9.954 36.679-15.21 56.495-15.21 19.552 0 38.872 5.134 55.862 14.842l698.777 399.436c34.981 19.998 56.709 57.441 56.709 97.729s-21.719 77.731-56.695 97.729zM614.446 576.179l-95.945-133.643-229.497 319.671 325.442-186.028zM158.202-59.344c-6.24 0.605-12.361 2.426-17.827 5.598-13.608 7.896-22.064 22.579-22.064 38.312v798.872c0 15.734 8.456 30.416 22.069 38.312 5.448 3.163 11.519 5.047 17.759 5.689l318.342-443.438-318.278-443.347zM289.005 5.793l229.497 319.675 95.945-133.643-325.442-186.032zM883.371 345.549l-209.339-119.662-113.513 158.115 113.513 158.115 209.339-119.662c13.763-7.869 22.315-22.602 22.315-38.454s-8.547-30.589-22.315-38.454z" />
<glyph unicode="&#xe925;" glyph-name="right-arrow-1" d="M689.55 733.181c-13.95 14.438-37.168 14.438-51.606 0-13.95-13.95-13.95-37.168 0-51.086l261.674-261.674h-863.49c-20.129-0.033-36.128-16.032-36.128-36.16s15.999-36.648 36.128-36.648h863.49l-261.674-261.187c-13.95-14.438-13.95-37.689 0-51.606 14.438-14.438 37.689-14.438 51.606 0l323.622 323.622c14.438 13.95 14.438 37.168 0 51.086l-323.622 323.654z" />
<glyph unicode="&#xe926;" glyph-name="full-size" d="M35.663 586.503c19.7 0 35.663 15.967 35.663 35.663v152.057l229.693-229.645c6.966-6.961 16.091-10.442 25.216-10.442 9.13 0 18.259 3.481 25.221 10.447 13.928 13.928 13.928 36.509-0.005 50.432l-229.702 229.65h152.090c19.695 0 35.663 15.967 35.663 35.663s-15.963 35.663-35.663 35.663h-238.176c-19.7 0-35.663-15.967-35.663-35.663v-238.166c0-19.691 15.963-35.658 35.663-35.658zM988.337 181.497c-19.7 0-35.663-15.967-35.663-35.663v-152.062l-236.763 236.763c-13.932 13.928-36.509 13.928-50.437 0s-13.928-36.509 0-50.432l236.759-236.759h-152.052c-19.7 0-35.663-15.967-35.663-35.663s15.963-35.663 35.663-35.663h238.161c19.7 0 35.663 15.967 35.663 35.663v238.152c-0.005 19.695-15.972 35.663-35.668 35.663zM308.089 230.536l-236.74-236.759v152.057c0 19.695-15.963 35.663-35.663 35.663s-35.663-15.967-35.663-35.663v-238.161c0-19.695 15.963-35.663 35.663-35.663h238.152c19.695 0 35.663 15.967 35.663 35.663s-15.963 35.663-35.663 35.663h-152.057l236.744 236.768c13.928 13.928 13.928 36.509-0.005 50.437-13.918 13.923-36.5 13.923-50.432-0.005zM988.337 895.99h-238.161c-19.7 0-35.663-15.967-35.663-35.663s15.963-35.663 35.663-35.663h152.062l-229.659-229.674c-13.928-13.928-13.928-36.509 0.005-50.437 6.961-6.961 16.091-10.442 25.216-10.442s18.255 3.485 25.221 10.447l229.659 229.674v-152.066c0-19.695 15.963-35.663 35.663-35.663s35.663 15.967 35.663 35.663v238.161c-0.005 19.7-15.972 35.663-35.668 35.663z" />
<glyph unicode="&#xe927;" glyph-name="download-content" d="M405.334-128h-256.001c-58.812 0-106.667 47.832-106.667 106.667v789.332c0 2.291 0.353 4.479 1.020 6.542-0.667 4.832-1.020 9.771-1.020 14.792 0.002 58.814 47.855 106.667 106.667 106.667h725.333c11.792 0 21.334-9.541 21.334-21.334s-9.541-21.334-21.334-21.334h-725.333c-35.292 0-63.999-28.708-63.999-63.999s28.708-63.999 63.999-63.999h725.333c11.792 0 21.334-9.541 21.334-21.334v-192c0-11.792-9.541-21.334-21.334-21.334s-21.334 9.541-21.334 21.334v170.666h-703.999c-24.001 0-46.166 7.959-63.999 21.376v-725.375c0-35.292 28.708-63.999 63.999-63.999h256c11.792 0 21.334-9.541 21.334-21.334s-9.541-21.334-21.332-21.334zM703.999-128c-152.917 0-277.333 124.416-277.333 277.333s124.416 277.333 277.333 277.333 277.333-124.416 277.333-277.333-124.416-277.333-277.333-277.333zM703.999 384.001c-129.374 0-234.666-105.292-234.666-234.666s105.292-234.666 234.666-234.666 234.666 105.292 234.666 234.666-105.29 234.666-234.666 234.666zM703.999 21.333c-0.167 0-0.374 0-0.541 0v0c-0.042 0-0.042 0-0.042 0-0.042 0-0.042 0-0.042 0v0c-2.667 0.084-5.209 0.667-7.499 1.624-2.333 0.917-4.5 2.333-6.458 4.126v0c0 0 0 0.042-0.042 0.042 0 0 0 0 0 0.042v0c-0.167 0.125-0.332 0.293-0.5 0.458l-85.291 85.291c-8.333 8.333-8.333 21.833 0 30.167s21.833 8.333 30.167 0l48.917-48.917v161.833c0 11.792 9.541 21.334 21.334 21.334s21.334-9.541 21.334-21.334v-161.833l48.917 48.917c8.333 8.333 21.833 8.333 30.167 0s8.333-21.833 0-30.167l-85.291-85.291c-0.167-0.167-0.332-0.332-0.5-0.458v0c0-0.042 0-0.042 0-0.042-0.042 0-0.042-0.042-0.042-0.042v0c-1.958-1.791-4.126-3.208-6.458-4.126-2.333-0.957-4.832-1.542-7.499-1.624v0c0 0 0 0-0.042 0 0 0 0 0-0.042 0v0c-0.169 0-0.378 0-0.545 0zM832 767.999h-682.667c-11.792 0-21.334 9.541-21.334 21.334s9.541 21.334 21.334 21.334h682.667c11.792 0 21.334-9.541 21.334-21.334s-9.541-21.334-21.334-21.334z" />
<glyph unicode="&#xe928;" glyph-name="list-interface-symbol" d="M225.273 454.313v-140.655c0-23.334-18.961-42.323-42.323-42.323h-140.626c-23.363 0-42.323 18.989-42.323 42.323v140.655c0 23.391 18.961 42.323 42.323 42.323h140.626c23.363 0 42.323-18.989 42.323-42.323zM981.677 496.637h-628.756c-23.334 0-42.323-18.933-42.323-42.323v-140.655c0-23.334 18.989-42.323 42.323-42.323h628.784c23.363 0 42.323 18.989 42.323 42.323v140.655c-0.028 23.334-18.961 42.323-42.352 42.323zM182.95 817.589h-140.626c-23.363 0-42.323-18.933-42.323-42.323v-140.655c0-23.391 18.961-42.323 42.323-42.323h140.626c23.363 0 42.323 18.933 42.323 42.323v140.655c0 23.334-18.961 42.323-42.323 42.323zM981.677 817.589h-628.756c-23.334 0-42.323-18.933-42.323-42.323v-140.655c0-23.391 18.989-42.323 42.323-42.323h628.784c23.363 0 42.323 18.933 42.323 42.323v140.655c-0.028 23.334-18.961 42.323-42.352 42.323zM182.95 175.656h-140.626c-23.363 0-42.323-18.933-42.323-42.323v-140.626c0-23.419 18.961-42.323 42.323-42.323h140.626c23.363 0 42.323 18.904 42.323 42.323v140.626c0 23.391-18.961 42.323-42.323 42.323zM981.677 175.656h-628.756c-23.334 0-42.323-18.933-42.323-42.323v-140.626c0-23.419 18.989-42.323 42.323-42.323h628.784c23.363 0 42.323 18.904 42.323 42.323v140.626c-0.028 23.391-18.961 42.323-42.352 42.323z" />
<glyph unicode="&#xe929;" glyph-name="apple-logo" d="M926.956 143.93c-2.755-7.778-5.425-16.131-8.496-24.34-25.431-68.858-64.036-129.995-110.879-186.023-9.041-10.907-19.575-20.781-30.454-29.937-21.498-18.198-46.24-29.191-74.857-30.195-21.498-0.689-42.136 3.215-62.027 11.309-14.409 5.884-28.588 12.457-43.198 17.767-47.417 17.222-94.576 14.954-141.218-3.473-16.82-6.659-33.41-14.007-50.546-19.776-19.862-6.659-40.471-9.357-61.453-5.396-18.312 3.416-34.329 11.94-49.197 22.934-18.456 13.663-33.955 30.31-48.45 47.934-68.628 83.697-114.696 178.33-136.941 284.33-9.587 45.58-14.179 91.533-11.366 138.118 3.301 55.856 16.274 109.042 46.125 156.975 37.457 60.247 90.299 99.713 159.817 115.988 41.82 9.845 82.492 5.827 122.36-9.529 20.982-8.037 42.021-15.987 63.089-23.881 19.403-7.291 38.72-7.291 58.152 0.144 21.498 8.209 43.025 16.389 64.61 24.397 22.13 8.065 44.633 14.667 68.112 16.533 35.132 2.842 69.403-1.722 102.756-12.888 47.273-15.815 85.735-43.8 114.782-84.558 0.775-1.119 1.636-2.354 2.21-3.243-73.249-51.062-114.955-118.514-108.898-209.846 6.114-91.39 55.31-153.215 135.965-193.342zM516.076 659.116c21.613-0.574 42.394 3.588 62.4 11.539 91.246 36.223 138.95 132.75 137.515 206.574-0.115 5.941-0.517 11.883-0.775 18.772-9.386-1.406-17.939-2.067-26.148-4.133-66.619-16.332-117.882-53.502-151.579-113.692-19.719-35.247-30.683-72.675-27.325-113.577 0.23-4.334 1.808-5.425 5.913-5.482z" />
<glyph unicode="&#xe92a;" glyph-name="arrow-point-to-right" d="M782.857 333.307l-440.304-440.29c-28.009-28.022-73.42-28.022-101.415 0-27.997 27.997-27.997 73.406 0 101.401l389.601 389.589-389.589 389.576c-27.997 28.009-27.997 73.413 0 101.41 27.997 28.009 73.406 28.009 101.415 0l440.304-440.297c13.999-14.005 20.99-32.342 20.99-50.687 0-18.354-7.005-36.704-21.001-50.703z" />
<glyph unicode="&#xe92b;" glyph-name="books-stack-of-three" d="M950.949 542.192c-4.141 31.128-4.725 84.743 24.188 102.746 0.516 0.33 0.902 0.807 1.354 1.216 23.638 7.561 39.997 18.171 27.156 32.449l-348.695 105.065-564.617-78.499c0 0-64.656-9.241-58.88-109.692 3.135-54.672 20.283-81.522 35.278-94.736l-46.332-13.963c-12.86-14.278 3.496-24.891 27.137-32.439 0.449-0.422 0.828-0.895 1.354-1.225 28.894-18.018 28.338-71.626 24.182-102.761-103.803-29.475-66.541-39.080-66.541-39.080l22.77-5.51c-16.016-14.473-31.923-41.919-28.943-93.972 5.779-100.432 58.886-107.363 58.886-107.363l369.482-120.095 557.689 135.081c0 0 37.274 9.62-66.557 39.098-4.174 31.086-4.755 84.688 24.207 102.752 0.532 0.321 0.92 0.807 1.351 1.21 23.641 7.561 39.985 18.162 27.14 32.439l-24.24 7.319c16.166 9.749 40.449 35.226 44.254 101.407 2.625 45.522-9.25 72.183-22.996 87.878l47.912 11.594c0.003-0.018 37.277 9.602-66.538 39.080zM484.476 543.479l457.932 94.115c-15.087-27.614-14.455-65.404-11.958-89.693 0.547-5.495 1.177-10.513 1.788-14.327l-451.704-112.363 3.942 122.267zM81.626 445.739l457.91-94.115 3.933-122.27-451.667 112.36c0.596 3.82 1.225 8.832 1.797 14.342 2.481 24.271 3.126 62.070-11.973 89.684zM63.284 600.311c-0.571 26.719 4.19 46.042 13.813 55.864 6.124 6.271 13.352 7.576 18.308 7.576 2.619 0 4.505-0.364 4.633-0.364l364.654-118.884-3.982-123.123-358.474 100.496c-0.66 0.186-1.556 0.315-2.246 0.345-1.403 0.101-35.068 3.2-36.706 78.090zM429.609 37.675l-358.465 100.499c-0.663 0.193-1.549 0.321-2.24 0.354-1.427 0.095-35.107 3.19-36.736 78.062-0.581 26.752 4.205 46.057 13.81 55.888 6.139 6.271 13.37 7.576 18.318 7.576 2.625 0 4.505-0.351 4.642-0.351 0 0 0.015 0 0 0l364.629-118.903-3.958-123.126zM899.331 164.214c0.565-5.513 1.195-10.522 1.806-14.342l-451.713-112.372 3.948 122.27 96.573 19.855 14.262-3.45 53.455 17.373 293.644 60.353c-15.103-27.611-14.476-65.417-11.976-89.687zM924.213 330.384c-0.822-0.018-1.644-0.128-2.417-0.373l-358.456-100.496-3.967 123.123 364.131 118.756c0.034 0.015 13.556 3.019 23.482-7.075 9.608-9.822 14.375-29.145 13.813-55.864-1.681-74.866-35.361-77.977-36.586-78.072z" />
<glyph unicode="&#xe92c;" glyph-name="3x3-grid" d="M219.427 896h-146.286c-40.373 0-73.142-32.769-73.142-73.142v-146.286c0-40.375 32.769-73.142 73.142-73.142h146.286c40.375 0 73.142 32.769 73.142 73.142v146.286c0.002 40.373-32.767 73.142-73.142 73.142zM585.143 896h-146.286c-40.375 0-73.142-32.769-73.142-73.142v-146.286c0-40.375 32.769-73.142 73.142-73.142h146.286c40.375 0 73.142 32.769 73.142 73.142v146.286c0 40.373-32.767 73.142-73.142 73.142zM950.856 896h-146.286c-40.375 0-73.144-32.769-73.144-73.142v-146.286c0-40.375 32.769-73.142 73.144-73.142h146.286c40.375 0 73.144 32.769 73.144 73.142v146.286c0 40.373-32.769 73.142-73.144 73.142zM219.427 530.287h-146.286c-40.373 0-73.142-32.769-73.142-73.144v-146.286c0-40.375 32.769-73.142 73.142-73.142h146.286c40.375 0 73.142 32.769 73.142 73.142v146.286c0.002 40.375-32.767 73.144-73.142 73.144zM585.143 530.287h-146.286c-40.375 0-73.142-32.769-73.142-73.142v-146.286c0-40.375 32.769-73.142 73.142-73.142h146.286c40.375 0 73.142 32.769 73.142 73.142v146.286c0 40.373-32.767 73.142-73.142 73.142zM950.856 530.287h-146.286c-40.375 0-73.144-32.769-73.144-73.142v-146.286c0-40.375 32.769-73.142 73.144-73.142h146.286c40.375 0 73.144 32.769 73.144 73.142v146.286c0 40.373-32.769 73.142-73.144 73.142zM219.427 164.571h-146.286c-40.373 0-73.142-32.767-73.142-73.142v-146.286c0-40.375 32.769-73.144 73.142-73.144h146.286c40.375 0 73.142 32.769 73.142 73.144v146.286c0.002 40.375-32.767 73.142-73.142 73.142zM585.143 164.571h-146.286c-40.375 0-73.142-32.769-73.142-73.144v-146.286c0-40.375 32.769-73.144 73.142-73.144h146.286c40.375 0 73.142 32.769 73.142 73.144v146.286c0 40.377-32.767 73.144-73.142 73.144zM950.856 164.571h-146.286c-40.375 0-73.144-32.769-73.144-73.144v-146.286c0-40.375 32.769-73.144 73.144-73.144h146.286c40.375 0 73.144 32.769 73.144 73.144v146.286c0 40.377-32.769 73.144-73.144 73.144z" />
<glyph unicode="&#xe92d;" glyph-name="blocks-with-angled-cuts" d="M1024 0v768l-384-384v-384zM384 0v768l-384-384v-384z" />
<glyph unicode="&#xe93a;" glyph-name="add" d="M1024 408.381h-487.619v487.619h-48.762v-487.619h-487.619v-48.762h487.619v-487.619h48.762v487.619h487.619z" />
<glyph unicode="&#xe94c;" glyph-name="up-arrow-1" d="M53.632 123.264l456.96 453.248 457.28-453.552c6.352-6.304 14.672-9.44 22.976-9.44 8.32 0 16.64 3.136 22.976 9.44 12.688 12.592 12.688 32.992 0 45.584l-479.68 475.76c-3.2 3.2-7.904 6-12.112 7.6-12 4.512-25.552 1.712-34.656-7.296l-479.712-475.76c-12.688-12.592-12.688-32.992 0-45.584 12.704-12.576 33.264-12.576 45.968 0z" />
<glyph unicode="&#xe94d;" glyph-name="right-arrow" d="M320.695-66.878c-6.35-6.35-14.288-9.526-23.020-9.526s-16.67 3.175-23.020 9.526c-12.701 12.701-12.701 33.34 0 46.040l404.837 404.837-404.837 404.837c-12.701 12.701-12.701 33.34 0 46.040s33.34 12.701 46.040 0l427.857-427.857c12.701-12.701 12.701-33.34 0-46.040l-427.857-427.857z" />
<glyph unicode="&#xe964;" glyph-name="down-arrow" d="M962.878 621.346c-12.701 12.701-33.34 12.701-46.040 0l-404.837-405.631-405.631 405.631c-12.701 12.701-33.34 12.701-46.040 0s-12.701-33.34 0-46.040l427.857-427.857c6.35-6.35 14.288-9.526 23.020-9.526 7.938 0 16.67 3.175 23.020 9.526l427.857 427.857c13.495 12.701 13.495 33.34 0.794 46.040z" />
<glyph unicode="&#xea3c;" glyph-name="arrow-right2" d="M621.254 18.746l320 320c24.994 24.992 24.994 65.516 0 90.51l-320 320c-24.994 24.992-65.516 24.992-90.51 0-24.994-24.994-24.994-65.516 0-90.51l210.746-210.746h-613.49c-35.346 0-64-28.654-64-64s28.654-64 64-64h613.49l-210.746-210.746c-12.496-12.496-18.744-28.876-18.744-45.254s6.248-32.758 18.744-45.254c24.994-24.994 65.516-24.994 90.51 0z" />
<glyph unicode="&#xea40;" glyph-name="arrow-left2" d="M402.746 18.746l-320 320c-24.994 24.992-24.994 65.516 0 90.51l320 320c24.994 24.992 65.516 24.992 90.51 0 24.994-24.994 24.994-65.516 0-90.51l-210.746-210.746h613.49c35.346 0 64-28.654 64-64s-28.654-64-64-64h-613.49l210.746-210.746c12.496-12.496 18.744-28.876 18.744-45.254s-6.248-32.758-18.744-45.254c-24.994-24.994-65.516-24.994-90.51 0z" />
<glyph unicode="&#xeaef;" glyph-name="arrows4" d="M315.733 896l-119.467-119.467 392.533-392.533-392.533-392.533 119.467-119.467 512 512z" />
<glyph unicode="&#xeb2d;" glyph-name="arrows22" d="M1010.055 417.668l-304.726 304.726c-18.592 18.592-48.745 18.592-67.337 0-18.596-18.596-18.596-48.741 0-67.337l223.444-223.444h-813.823c-26.294 0-47.613-21.319-47.613-47.613 0-26.29 21.319-47.613 47.613-47.613h813.823l-223.436-223.444c-18.596-18.596-18.596-48.741 0-67.337 9.294-9.29 21.483-13.945 33.668-13.945s24.37 4.655 33.668 13.945l304.718 304.726c18.596 18.596 18.596 48.741 0 67.337z" />
<glyph unicode="&#xeb44;" glyph-name="signs22" d="M221.645 166.788h802.355v-146.286h-802.355v146.286zM221.645 454.926h802.355v-146.286h-802.355v146.286zM221.645 751.931h802.355v-146.286h-802.355v146.286zM0 162.355h146.286v-146.286h-146.286v146.286zM0 454.926h146.286v-146.286h-146.286v146.286zM0 751.931h146.286v-146.286h-146.286v146.286z" />
<glyph unicode="&#xeb45;" glyph-name="squares2" d="M279.924 864.172c0 17.611-14.216 31.828-31.828 31.828h-214.306c-17.611 0-31.828-14.216-31.828-31.828v-214.412c0-17.611 14.216-31.828 31.828-31.828h214.412c17.611 0 31.828 14.216 31.828 31.828v214.412h-0.106zM650.928 864.172c0 17.611-14.216 31.828-31.828 31.828h-214.306c-17.611 0-31.828-14.216-31.828-31.828v-214.412c0-17.611 14.216-31.828 31.828-31.828h214.306c17.611 0 31.828 14.216 31.828 31.828v214.412zM1021.932 864.172c0 17.611-14.216 31.828-31.828 31.828h-214.306c-17.612 0-31.828-14.216-31.828-31.828v-214.412c0-17.611 14.215-31.828 31.828-31.828h214.412c17.612 0 31.828 14.216 31.828 31.828v214.412h-0.106zM279.924 491.153c0 17.611-14.216 31.828-31.828 31.828h-214.306c-17.611 0-31.828-14.216-31.828-31.828v-214.306c0-17.611 14.216-31.828 31.828-31.828h214.412c17.611 0 31.828 14.216 31.828 31.828v214.306h-0.106zM650.928 491.153c0 17.611-14.216 31.828-31.828 31.828h-214.306c-17.611 0-31.828-14.216-31.828-31.828v-214.306c0-17.611 14.216-31.828 31.828-31.828h214.306c17.611 0 31.828 14.216 31.828 31.828v214.306zM1021.932 491.153c0 17.611-14.216 31.828-31.828 31.828h-214.306c-17.612 0-31.828-14.216-31.828-31.828v-214.306c0-17.611 14.215-31.828 31.828-31.828h214.412c17.612 0 31.828 14.216 31.828 31.828v214.306h-0.106zM248.096 150.066h-214.306c-17.611 0-31.828-14.216-31.828-31.828v-214.412c0-17.613 14.216-31.828 31.828-31.828h214.412c17.611 0 31.828 14.214 31.828 31.828v214.412c-0.106 17.505-14.322 31.828-31.934 31.828zM619.101 150.066h-214.306c-17.611 0-31.828-14.216-31.828-31.828v-214.412c0-17.613 14.216-31.828 31.828-31.828h214.306c17.611 0 31.828 14.214 31.828 31.828v214.412c0 17.505-14.217 31.828-31.828 31.828zM990.105 150.066h-214.306c-17.612 0-31.828-14.216-31.828-31.828v-214.412c0-17.613 14.215-31.828 31.828-31.828h214.412c17.612 0 31.828 14.214 31.828 31.828v214.412c-0.106 17.505-14.322 31.828-31.934 31.828z" />
<glyph unicode="&#xeb60;" glyph-name="arrows32" d="M774.115 404.413l-483.056 483.056c-11.374 11.374-29.614 11.374-40.988 0s-11.374-29.614 0-40.988l462.455-462.455-462.455-462.455c-11.374-11.374-11.374-29.614 0-40.988 5.58-5.58 13.090-8.584 20.387-8.584s14.807 2.79 20.387 8.584l483.056 483.056c11.374 11.159 11.374 29.614 0.215 40.773z" />
<glyph unicode="&#xeb6e;" glyph-name="map-location" d="M468.035 442.487h-303.759c-12.195 0-22.922-8.063-26.303-19.782l-58.288-201.825 408.68-44.716 32.070 153.487c-19.96 35.64-38.323 73.796-52.399 112.836zM849.732 136.622l122.737-13.427-36.647 126.896c-4.923-7.245-9.821-14.303-14.645-21.088-24.795-34.914-49.573-66.253-71.444-92.381zM583.574 230.23l-13.175-63.044 66.34-7.253c-16.658 20.707-34.389 43.843-52.15 68.848-0.331 0.476-0.676 0.969-1.016 1.448zM1.076-51.324c-2.387-8.271-0.75-17.17 4.422-24.053 5.172-6.88 13.276-10.924 21.882-10.924h406.147l37.959 181.676-414.933 45.403-55.476-192.103zM997.111 37.87l-443.588 48.541-36.089-172.707h479.132c0.019 0 0.038 0 0.055 0 15.122 0 27.379 12.263 27.379 27.379 0 3.277-0.575 6.423-1.629 9.325l-25.26 87.461zM741.507 101.82c2.913-3.119 7.015-4.887 11.297-4.887 4.285 0 8.373 1.769 11.316 4.887 24.945 26.539 74.209 81.459 123.577 150.962 62.19 87.554 136.303 215.928 136.303 330.333 0 149.538-121.655 271.185-271.196 271.185-149.525 0-271.183-121.647-271.183-271.185 0-114.484 74.209-242.943 136.462-330.558 49.354-69.497 98.503-124.256 123.424-150.738zM752.804 752.261c91.31 0 165.588-74.3 165.588-165.607 0-91.272-74.28-165.607-165.588-165.607-91.294 0-165.583 74.335-165.583 165.607 0.005 91.308 74.286 165.607 165.583 165.607z" />
<glyph unicode="&#xeb73;" glyph-name="mark2" d="M1013.868 658.405l-114.131 114.133c-13.508 13.508-35.41 13.508-48.918 0l-475.432-475.436-202.212 202.207c-13.503 13.508-35.408 13.508-48.913 0l-114.131-114.133c-13.508-13.505-13.508-35.408 0-48.916l340.8-340.798c6.754-6.756 15.607-10.132 24.458-10.132 8.853 0 17.706 3.376 24.458 10.132l614.020 614.030c6.488 6.485 10.13 15.284 10.13 24.455 0.002 9.176-3.642 17.97-10.13 24.458z" />
<glyph unicode="&#xeb76;" glyph-name="map3" d="M863.901 331.261l157.671-323.9c6.412-13.173-0.328-23.95-14.979-23.95h-989.189c-14.651 0-21.392 10.777-14.979 23.95l157.673 323.9c2.508 5.152 9.249 9.368 14.979 9.368h135.196c4.166 0 9.793-2.609 12.521-5.759 9.172-10.6 18.516-20.955 27.832-31.205 8.848-9.73 17.743-19.587 26.567-29.674h-160.445c-5.731 0-12.472-4.215-14.979-9.368l-104.451-214.575h829.356l-104.443 214.575c-2.506 5.153-9.248 9.368-14.98 9.368h-160.808c8.823 10.088 17.721 19.945 26.569 29.674 9.345 10.28 18.74 20.616 27.934 31.219 2.724 3.142 8.339 5.746 12.499 5.746h135.481c5.727 0 12.467-4.213 14.975-9.368zM743.807 552.612c0-176.985-147.339-210.178-216.633-380.26-5.63-13.821-25.088-13.75-30.72 0.067-62.509 153.351-188.466 195.403-212.565 332.017-23.728 134.49 69.389 266.232 205.35 279.084 138.273 13.071 254.568-95.337 254.568-230.907zM634.335 552.612c0 67.658-54.846 122.505-122.505 122.505s-122.505-54.848-122.505-122.505c0-67.659 54.846-122.505 122.505-122.505s122.505 54.846 122.505 122.505z" />
</font>
</defs>
</svg>
